  0
SECTION
  2
HEADER
  9
$ACADVER
  1
AC1015
  9
$ACADMAINTVER
 70
     6
  9
$DWGCODEPAGE
  3
ANSI_1252
  9
$INSBASE
 10
0.0
 20
0.0
 30
0.0
  9
$EXTMIN
 10
-140.0
 20
-42.1012064548222
 30
0.0
  9
$EXTMAX
 10
1973.893414523774
 20
995.3337166989044
 30
0.0
  9
$LIMMIN
 10
0.0
 20
0.0
  9
$LIMMAX
 10
2970.0
 20
2100.0
  9
$ORTHOMODE
 70
     0
  9
$REGENMODE
 70
     1
  9
$FILLMODE
 70
     1
  9
$QTEXTMODE
 70
     0
  9
$MIRRTEXT
 70
     1
  9
$LTSCALE
 40
1.0
  9
$ATTMODE
 70
     1
  9
$TEXTSIZE
 40
2.5
  9
$TRACEWID
 40
1.0
  9
$TEXTSTYLE
  7
Standard
  9
$CLAYER
  8
0
  9
$CELTYPE
  6
ByLayer
  9
$CECOLOR
 62
   256
  9
$CELTSCALE
 40
1.0
  9
$DISPSILH
 70
     0
  9
$DIMSCALE
 40
1.0
  9
$DIMASZ
 40
2.5
  9
$DIMEXO
 40
0.625
  9
$DIMDLI
 40
3.75
  9
$DIMRND
 40
0.0
  9
$DIMDLE
 40
0.0
  9
$DIMEXE
 40
1.25
  9
$DIMTP
 40
0.0
  9
$DIMTM
 40
0.0
  9
$DIMTXT
 40
2.5
  9
$DIMCEN
 40
2.5
  9
$DIMTSZ
 40
0.0
  9
$DIMTOL
 70
     0
  9
$DIMLIM
 70
     0
  9
$DIMTIH
 70
     0
  9
$DIMTOH
 70
     0
  9
$DIMSE1
 70
     0
  9
$DIMSE2
 70
     0
  9
$DIMTAD
 70
     1
  9
$DIMZIN
 70
     8
  9
$DIMBLK
  1

  9
$DIMASO
 70
     1
  9
$DIMSHO
 70
     1
  9
$DIMPOST
  1

  9
$DIMAPOST
  1

  9
$DIMALT
 70
     0
  9
$DIMALTD
 70
     3
  9
$DIMALTF
 40
0.03937007874016
  9
$DIMLFAC
 40
1.0
  9
$DIMTOFL
 70
     1
  9
$DIMTVP
 40
0.0
  9
$DIMTIX
 70
     0
  9
$DIMSOXD
 70
     0
  9
$DIMSAH
 70
     0
  9
$DIMBLK1
  1

  9
$DIMBLK2
  1

  9
$DIMSTYLE
  2
ISO-25
  9
$DIMCLRD
 70
     0
  9
$DIMCLRE
 70
     0
  9
$DIMCLRT
 70
     0
  9
$DIMTFAC
 40
1.0
  9
$DIMGAP
 40
0.625
  9
$DIMJUST
 70
     0
  9
$DIMSD1
 70
     0
  9
$DIMSD2
 70
     0
  9
$DIMTOLJ
 70
     0
  9
$DIMTZIN
 70
     8
  9
$DIMALTZ
 70
     0
  9
$DIMALTTZ
 70
     0
  9
$DIMUPT
 70
     0
  9
$DIMDEC
 70
     2
  9
$DIMTDEC
 70
     2
  9
$DIMALTU
 70
     2
  9
$DIMALTTD
 70
     3
  9
$DIMTXSTY
  7
Standard
  9
$DIMAUNIT
 70
     0
  9
$DIMADEC
 70
     0
  9
$DIMALTRND
 40
0.0
  9
$DIMAZIN
 70
     0
  9
$DIMDSEP
 70
    44
  9
$DIMATFIT
 70
     3
  9
$DIMFRAC
 70
     0
  9
$DIMLDRBLK
  1

  9
$DIMLUNIT
 70
     2
  9
$DIMLWD
 70
    -2
  9
$DIMLWE
 70
    -2
  9
$DIMTMOVE
 70
     0
  9
$LUNITS
 70
     2
  9
$LUPREC
 70
     1
  9
$SKETCHINC
 40
1.0
  9
$FILLETRAD
 40
150.0
  9
$AUNITS
 70
     0
  9
$AUPREC
 70
     1
  9
$MENU
  1
.
  9
$ELEVATION
 40
0.0
  9
$PELEVATION
 40
0.0
  9
$THICKNESS
 40
0.0
  9
$LIMCHECK
 70
     0
  9
$CHAMFERA
 40
10.0
  9
$CHAMFERB
 40
10.0
  9
$CHAMFERC
 40
20.0
  9
$CHAMFERD
 40
0.0
  9
$SKPOLY
 70
     0
  9
$TDCREATE
 40
2453261.787012975
  9
$TDUCREATE
 40
2453261.745346307
  9
$TDUPDATE
 40
2454613.948426284
  9
$TDUUPDATE
 40
2454613.906759618
  9
$TDINDWG
 40
13.4492505787
  9
$TDUSRTIMER
 40
13.4492504051
  9
$USRTIMER
 70
     1
  9
$ANGBASE
 50
0.0
  9
$ANGDIR
 70
     0
  9
$PDMODE
 70
     0
  9
$PDSIZE
 40
0.0
  9
$PLINEWID
 40
0.0
  9
$SPLFRAME
 70
     0
  9
$SPLINETYPE
 70
     6
  9
$SPLINESEGS
 70
     8
  9
$HANDSEED
  5
26CD
  9
$SURFTAB1
 70
     6
  9
$SURFTAB2
 70
     6
  9
$SURFTYPE
 70
     6
  9
$SURFU
 70
     6
  9
$SURFV
 70
     6
  9
$UCSBASE
  2

  9
$UCSNAME
  2

  9
$UCSORG
 10
0.0
 20
0.0
 30
0.0
  9
$UCSXDIR
 10
1.0
 20
0.0
 30
0.0
  9
$UCSYDIR
 10
0.0
 20
1.0
 30
0.0
  9
$UCSORTHOREF
  2

  9
$UCSORTHOVIEW
 70
     0
  9
$UCSORGTOP
 10
0.0
 20
0.0
 30
0.0
  9
$UCSORGBOTTOM
 10
0.0
 20
0.0
 30
0.0
  9
$UCSORGLEFT
 10
0.0
 20
0.0
 30
0.0
  9
$UCSORGRIGHT
 10
0.0
 20
0.0
 30
0.0
  9
$UCSORGFRONT
 10
0.0
 20
0.0
 30
0.0
  9
$UCSORGBACK
 10
0.0
 20
0.0
 30
0.0
  9
$PUCSBASE
  2

  9
$PUCSNAME
  2

  9
$PUCSORG
 10
0.0
 20
0.0
 30
0.0
  9
$PUCSXDIR
 10
1.0
 20
0.0
 30
0.0
  9
$PUCSYDIR
 10
0.0
 20
1.0
 30
0.0
  9
$PUCSORTHOREF
  2

  9
$PUCSORTHOVIEW
 70
     0
  9
$PUCSORGTOP
 10
0.0
 20
0.0
 30
0.0
  9
$PUCSORGBOTTOM
 10
0.0
 20
0.0
 30
0.0
  9
$PUCSORGLEFT
 10
0.0
 20
0.0
 30
0.0
  9
$PUCSORGRIGHT
 10
0.0
 20
0.0
 30
0.0
  9
$PUCSORGFRONT
 10
0.0
 20
0.0
 30
0.0
  9
$PUCSORGBACK
 10
0.0
 20
0.0
 30
0.0
  9
$USERI1
 70
     0
  9
$USERI2
 70
     0
  9
$USERI3
 70
     0
  9
$USERI4
 70
     0
  9
$USERI5
 70
     0
  9
$USERR1
 40
0.0
  9
$USERR2
 40
0.0
  9
$USERR3
 40
0.0
  9
$USERR4
 40
0.0
  9
$USERR5
 40
0.0
  9
$WORLDVIEW
 70
     1
  9
$SHADEDGE
 70
     3
  9
$SHADEDIF
 70
    70
  9
$TILEMODE
 70
     1
  9
$MAXACTVP
 70
    64
  9
$PINSBASE
 10
0.0
 20
0.0
 30
0.0
  9
$PLIMCHECK
 70
     0
  9
$PEXTMIN
 10
28.68718404769896
 20
19.63631558418273
 30
0.0
  9
$PEXTMAX
 10
258.1846564292908
 20
176.7268402576446
 30
0.0
  9
$PLIMMIN
 10
-5.027069091796875
 20
-6.720416545867919
  9
$PLIMMAX
 10
291.89892578125
 20
203.2529110908508
  9
$UNITMODE
 70
     0
  9
$VISRETAIN
 70
     1
  9
$PLINEGEN
 70
     0
  9
$PSLTSCALE
 70
     1
  9
$TREEDEPTH
 70
  3020
  9
$CMLSTYLE
  2
Standard
  9
$CMLJUST
 70
     0
  9
$CMLSCALE
 40
20.0
  9
$PROXYGRAPHICS
 70
     1
  9
$MEASUREMENT
 70
     1
  9
$CELWEIGHT
370
    -1
  9
$ENDCAPS
280
     0
  9
$JOINSTYLE
280
     0
  9
$LWDISPLAY
290
     0
  9
$INSUNITS
 70
     4
  9
$HYPERLINKBASE
  1

  9
$STYLESHEET
  1
Screening 100%.ctb
  9
$XEDIT
290
     1
  9
$CEPSNTYPE
380
     0
  9
$PSTYLEMODE
290
     1
  9
$FINGERPRINTGUID
  2
{C3F1072E-DDD5-4B49-8146-17C129DB925F}
  9
$VERSIONGUID
  2
{13A32353-FC2D-4BDF-B1CE-BDC99A08C324}
  9
$EXTNAMES
290
     1
  9
$PSVPSCALE
 40
0.0
  9
$OLESTARTUP
290
     0
  0
ENDSEC
  0
SECTION
  2
CLASSES
  0
CLASS
  1
ACDBDICTIONARYWDFLT
  2
AcDbDictionaryWithDefault
  3
AutoCAD 2000
 90
        0
280
     0
281
     0
  0
CLASS
  1
ACDBPLACEHOLDER
  2
AcDbPlaceHolder
  3
AutoCAD 2000
 90
        0
280
     0
281
     0
  0
CLASS
  1
LAYOUT
  2
AcDbLayout
  3
AutoCAD 2000
 90
        0
280
     0
281
     0
  0
CLASS
  1
DICTIONARYVAR
  2
AcDbDictionaryVar
  3
AutoCAD 2000
 90
    32768
280
     0
281
     0
  0
ENDSEC
  0
SECTION
  2
TABLES
  0
TABLE
  2
VPORT
  5
8
330
0
100
AcDbSymbolTable
 70
     3
  0
VPORT
  5
26CC
330
8
100
AcDbSymbolTableRecord
100
AcDbViewportTableRecord
  2
*Active
 70
     0
 10
0.0
 20
0.0
 11
1.0
 21
1.0
 12
1045.799985455909
 22
263.4485028431745
 13
0.0
 23
0.0
 14
10.0
 24
10.0
 15
10.0
 25
10.0
 16
0.0
 26
0.0
 36
1.0
 17
0.0
 27
0.0
 37
0.0
 40
1541.888013800505
 41
1.706814580031695
 42
50.0
 43
0.0
 44
0.0
 50
0.0
 51
0.0
 71
     0
 72
   100
 73
     1
 74
     3
 75
     0
 76
     0
 77
     0
 78
     0
281
     0
 65
     1
110
0.0
120
0.0
130
0.0
111
1.0
121
0.0
131
0.0
112
0.0
122
1.0
132
0.0
 79
     0
146
0.0
  0
ENDTAB
  0
TABLE
  2
LTYPE
  5
5
330
0
100
AcDbSymbolTable
 70
     1
  0
LTYPE
  5
14
330
5
100
AcDbSymbolTableRecord
100
AcDbLinetypeTableRecord
  2
ByBlock
 70
     0
  3

 72
    65
 73
     0
 40
0.0
  0
LTYPE
  5
15
330
5
100
AcDbSymbolTableRecord
100
AcDbLinetypeTableRecord
  2
ByLayer
 70
     0
  3

 72
    65
 73
     0
 40
0.0
  0
LTYPE
  5
16
330
5
100
AcDbSymbolTableRecord
100
AcDbLinetypeTableRecord
  2
Continuous
 70
     0
  3
Solid line
 72
    65
 73
     0
 40
0.0
  0
ENDTAB
  0
TABLE
  2
LAYER
  5
2
330
0
100
AcDbSymbolTable
 70
    10
  0
LAYER
  5
10
330
2
100
AcDbSymbolTableRecord
100
AcDbLayerTableRecord
  2
0
 70
     0
 62
     7
  6
Continuous
290
     0
370
    -3
390
F
  0
LAYER
  5
2E
330
2
100
AcDbSymbolTableRecord
100
AcDbLayerTableRecord
  2
roues
 70
     0
 62
     1
  6
Continuous
370
    20
390
F
  0
LAYER
  5
3E
330
2
100
AcDbSymbolTableRecord
100
AcDbLayerTableRecord
  2
Defpoints
 70
     0
 62
     7
  6
Continuous
290
     0
370
    -3
390
F
  0
LAYER
  5
B4
330
2
100
AcDbSymbolTableRecord
100
AcDbLayerTableRecord
  2
cadre
 70
     0
 62
     4
  6
Continuous
370
    20
390
F
  0
LAYER
  5
DD
330
2
100
AcDbSymbolTableRecord
100
AcDbLayerTableRecord
  2
Transmission
 70
     0
 62
     6
  6
Continuous
370
    20
390
F
  0
LAYER
  5
120
330
2
100
AcDbSymbolTableRecord
100
AcDbLayerTableRecord
  2
cotes
 70
     0
 62
     3
  6
Continuous
370
    20
390
F
  0
LAYER
  5
289
330
2
100
AcDbSymbolTableRecord
100
AcDbLayerTableRecord
  2
4b
 70
     0
 62
    30
  6
Continuous
370
    25
390
F
  0
LAYER
  5
DC8
330
2
100
AcDbSymbolTableRecord
100
AcDbLayerTableRecord
  2
direction
 70
     0
 62
     2
  6
Continuous
370
    20
390
F
  0
LAYER
  5
1A7B
330
2
100
AcDbSymbolTableRecord
100
AcDbLayerTableRecord
  2
fibre
 70
     0
 62
     5
  6
Continuous
370
    20
390
F
  0
LAYER
  5
1D6C
330
2
100
AcDbSymbolTableRecord
100
AcDbLayerTableRecord
  2
Layer1
 70
     0
 62
     5
  6
Continuous
370
    25
390
F
  0
ENDTAB
  0
TABLE
  2
STYLE
  5
3
330
0
100
AcDbSymbolTable
 70
     1
  0
STYLE
  5
11
330
3
100
AcDbSymbolTableRecord
100
AcDbTextStyleTableRecord
  2
Standard
 70
     0
 40
0.0
 41
1.0
 50
0.0
 71
     0
 42
2.5
  3
txt
  4

  0
ENDTAB
  0
TABLE
  2
VIEW
  5
6
330
0
100
AcDbSymbolTable
 70
     0
  0
ENDTAB
  0
TABLE
  2
UCS
  5
7
330
0
100
AcDbSymbolTable
 70
     0
  0
ENDTAB
  0
TABLE
  2
APPID
  5
9
330
0
100
AcDbSymbolTable
 70
     1
  0
APPID
  5
12
330
9
100
AcDbSymbolTableRecord
100
AcDbRegAppTableRecord
  2
ACAD
 70
     0
  0
ENDTAB
  0
TABLE
  2
DIMSTYLE
  5
A
330
0
100
AcDbSymbolTable
 70
     1
100
AcDbDimStyleTable
 71
     1
340
27
  0
DIMSTYLE
105
27
102
{ACAD_REACTORS
330
20A7
330
20CA
330
2497
330
24B3
330
2562
330
265E
330
2686
330
2695
330
26AF
102
}
330
A
100
AcDbSymbolTableRecord
100
AcDbDimStyleTableRecord
  2
ISO-25
 70
     0
 41
2.5
 42
0.625
 43
3.75
 44
1.25
 73
     0
 74
     0
 77
     1
 78
     8
140
2.5
141
2.5
143
0.03937007874016
147
0.625
171
     3
172
     1
271
     2
272
     2
274
     3
278
    44
283
     0
284
     8
340
11
  0
ENDTAB
  0
TABLE
  2
BLOCK_RECORD
  5
1
330
0
100
AcDbSymbolTable
 70
    17
  0
BLOCK_RECORD
  5
1F
330
1
100
AcDbSymbolTableRecord
100
AcDbBlockTableRecord
  2
*Model_Space
340
22
  0
BLOCK_RECORD
  5
1B
330
1
100
AcDbSymbolTableRecord
100
AcDbBlockTableRecord
  2
*Paper_Space
340
1E
  0
BLOCK_RECORD
  5
23
330
1
100
AcDbSymbolTableRecord
100
AcDbBlockTableRecord
  2
*Paper_Space0
340
26
  0
BLOCK_RECORD
  5
20A8
330
1
100
AcDbSymbolTableRecord
100
AcDbBlockTableRecord
  2
*D1
340
0
  0
BLOCK_RECORD
  5
20CB
330
1
100
AcDbSymbolTableRecord
100
AcDbBlockTableRecord
  2
*D2
340
0
  0
BLOCK_RECORD
  5
2498
330
1
100
AcDbSymbolTableRecord
100
AcDbBlockTableRecord
  2
*D4
340
0
  0
BLOCK_RECORD
  5
24B4
330
1
100
AcDbSymbolTableRecord
100
AcDbBlockTableRecord
  2
*D5
340
0
  0
BLOCK_RECORD
  5
2563
330
1
100
AcDbSymbolTableRecord
100
AcDbBlockTableRecord
  2
*D7
340
0
  0
BLOCK_RECORD
  5
265F
330
1
100
AcDbSymbolTableRecord
100
AcDbBlockTableRecord
  2
*D13
340
0
  0
BLOCK_RECORD
  5
2687
330
1
100
AcDbSymbolTableRecord
100
AcDbBlockTableRecord
  2
*D14
340
0
  0
BLOCK_RECORD
  5
2696
330
1
100
AcDbSymbolTableRecord
100
AcDbBlockTableRecord
  2
*D15
340
0
  0
BLOCK_RECORD
  5
26B0
330
1
100
AcDbSymbolTableRecord
100
AcDbBlockTableRecord
  2
*D16
340
0
  0
ENDTAB
  0
ENDSEC
  0
SECTION
  2
BLOCKS
  0
BLOCK
  5
20
330
1F
100
AcDbEntity
  8
0
100
AcDbBlockBegin
  2
*Model_Space
 70
     0
 10
0.0
 20
0.0
 30
0.0
  3
*Model_Space
  1

  0
ENDBLK
  5
21
330
1F
100
AcDbEntity
  8
0
100
AcDbBlockEnd
  0
BLOCK
  5
1C
330
1B
100
AcDbEntity
 67
     1
  8
0
100
AcDbBlockBegin
  2
*Paper_Space
 70
     0
 10
0.0
 20
0.0
 30
0.0
  3
*Paper_Space
  1

  0
ENDBLK
  5
1D
330
1B
100
AcDbEntity
 67
     1
  8
0
100
AcDbBlockEnd
  0
BLOCK
  5
24
330
23
100
AcDbEntity
  8
0
100
AcDbBlockBegin
  2
*Paper_Space0
 70
     0
 10
0.0
 20
0.0
 30
0.0
  3
*Paper_Space0
  1

  0
ENDBLK
  5
25
330
23
100
AcDbEntity
  8
0
100
AcDbBlockEnd
  0
BLOCK
  5
20B2
330
20A8
100
AcDbEntity
  8
0
100
AcDbBlockBegin
  2
*D1
 70
     1
 10
0.0
 20
0.0
 30
0.0
  3
*D1
  1

  0
LINE
  5
2554
330
20A8
100
AcDbEntity
  8
cotes
 62
     0
370
    -2
100
AcDbLine
 10
1500.0
 20
84.375
 30
0.0
 11
1500.0
 21
-40.41043100880233
 31
0.0
  0
LINE
  5
2555
330
20A8
100
AcDbEntity
  8
cotes
 62
     0
370
    -2
100
AcDbLine
 10
200.0
 20
84.375
 30
0.0
 11
200.0
 21
-40.41043100880233
 31
0.0
  0
LINE
  5
2556
330
20A8
100
AcDbEntity
  8
cotes
 62
     0
370
    -2
100
AcDbLine
 10
1497.5
 20
-39.16043100880233
 30
0.0
 11
202.4999999999999
 21
-39.16043100880233
 31
0.0
  0
SOLID
  5
2557
330
20A8
100
AcDbEntity
  8
cotes
 62
     0
100
AcDbTrace
 10
1497.5
 20
-38.74376434213567
 30
0.0
 11
1497.5
 21
-39.577097675469
 31
0.0
 12
1500.0
 22
-39.16043100880233
 32
0.0
 13
1500.0
 23
-39.16043100880233
 33
0.0
  0
SOLID
  5
2558
330
20A8
100
AcDbEntity
  8
cotes
 62
     0
100
AcDbTrace
 10
202.4999999999999
 20
-38.74376434213567
 30
0.0
 11
202.4999999999999
 21
-39.577097675469
 31
0.0
 12
200.0
 22
-39.16043100880233
 32
0.0
 13
200.0
 23
-39.16043100880233
 33
0.0
  0
MTEXT
  5
2559
330
20A8
100
AcDbEntity
  8
cotes
 62
     0
100
AcDbMText
 10
850.0
 20
-33.53543100880233
 30
0.0
 40
10.0
 41
0.0
 71
     5
 72
     1
  1
1300
 73
     1
 44
1.0
  0
POINT
  5
255A
330
20A8
100
AcDbEntity
  8
Defpoints
 62
     0
100
AcDbPoint
 10
1500.0
 20
85.0
 30
0.0
  0
POINT
  5
255B
330
20A8
100
AcDbEntity
  8
Defpoints
 62
     0
100
AcDbPoint
 10
200.0
 20
85.0
 30
0.0
  0
POINT
  5
255C
330
20A8
100
AcDbEntity
  8
Defpoints
 62
     0
100
AcDbPoint
 10
200.0
 20
-39.16043100880233
 30
0.0
  0
ENDBLK
  5
20B3
330
20A8
100
AcDbEntity
  8
0
100
AcDbBlockEnd
  0
BLOCK
  5
20D5
330
20CB
100
AcDbEntity
  8
0
100
AcDbBlockBegin
  2
*D2
 70
     1
 10
0.0
 20
0.0
 30
0.0
  3
*D2
  1

  0
LINE
  5
256F
330
20CB
100
AcDbEntity
  8
cotes
 62
     0
370
    -2
100
AcDbLine
 10
1804.996347667301
 20
700.0
 30
0.0
 11
1902.321880106164
 21
700.0
 31
0.0
  0
LINE
  5
2570
330
20CB
100
AcDbEntity
  8
cotes
 62
     0
370
    -2
100
AcDbLine
 10
1823.905206371985
 20
85.0
 30
0.0
 11
1902.321880106163
 21
84.99999999999998
 31
0.0
  0
LINE
  5
2571
330
20CB
100
AcDbEntity
  8
cotes
 62
     0
370
    -2
100
AcDbLine
 10
1901.071880106164
 20
697.5
 30
0.0
 11
1901.071880106163
 21
87.49999999999998
 31
0.0
  0
SOLID
  5
2572
330
20CB
100
AcDbEntity
  8
cotes
 62
     0
100
AcDbTrace
 10
1900.655213439497
 20
697.5
 30
0.0
 11
1901.488546772831
 21
697.5
 31
0.0
 12
1901.071880106164
 22
700.0
 32
0.0
 13
1901.071880106164
 23
700.0
 33
0.0
  0
SOLID
  5
2573
330
20CB
100
AcDbEntity
  8
cotes
 62
     0
100
AcDbTrace
 10
1900.655213439497
 20
87.49999999999998
 30
0.0
 11
1901.48854677283
 21
87.49999999999998
 31
0.0
 12
1901.071880106163
 22
84.99999999999998
 32
0.0
 13
1901.071880106163
 23
84.99999999999998
 33
0.0
  0
MTEXT
  5
2574
330
20CB
100
AcDbEntity
  8
cotes
 62
     0
100
AcDbMText
 10
1895.446880106164
 20
392.5000000000003
 30
0.0
 40
10.0
 41
0.0
 71
     5
 72
     1
  1
615
 11
0.0000000000000001
 21
1.0
 31
0.0
 73
     1
 44
1.0
  0
POINT
  5
2575
330
20CB
100
AcDbEntity
  8
Defpoints
 62
     0
100
AcDbPoint
 10
1804.3713476673
 20
700.0
 30
0.0
  0
POINT
  5
2576
330
20CB
100
AcDbEntity
  8
Defpoints
 62
     0
100
AcDbPoint
 10
1823.280206371985
 20
85.0
 30
0.0
  0
POINT
  5
2577
330
20CB
100
AcDbEntity
  8
Defpoints
 62
     0
100
AcDbPoint
 10
1901.071880106163
 20
84.99999999999998
 30
0.0
  0
ENDBLK
  5
20D6
330
20CB
100
AcDbEntity
  8
0
100
AcDbBlockEnd
  0
BLOCK
  5
24A3
330
2498
100
AcDbEntity
  8
0
100
AcDbBlockBegin
  2
*D4
 70
     1
 10
0.0
 20
0.0
 30
0.0
  3
*D4
  1

  0
LINE
  5
2499
330
2498
100
AcDbEntity
  8
cotes
 62
     0
370
    -2
100
AcDbLine
 10
849.599322452658
 20
480.6101850044497
 30
0.0
 11
851.0237585688548
 21
487.0354011067022
 31
0.0
  0
ARC
  5
249A
330
2498
100
AcDbEntity
  8
cotes
 62
     0
370
    -2
100
AcDbCircle
 10
838.3793145617996
 20
429.9999999999998
 30
0.0
 40
57.17019294430644
100
AcDbArc
 50
2.505691456654155
 51
74.99430854334583
  0
SOLID
  5
249B
330
2498
100
AcDbEntity
  8
cotes
 62
     0
100
AcDbTrace
 10
895.91141321413
 20
432.5085125811146
 30
0.0
 11
895.0782790954969
 21
432.4902921306837
 31
0.0
 12
895.5495075061062
 22
429.9999999999999
 32
0.0
 13
895.5495075061062
 23
429.9999999999999
 33
0.0
  0
SOLID
  5
249C
330
2498
100
AcDbEntity
  8
cotes
 62
     0
100
AcDbTrace
 10
853.0824788199121
 20
484.8159748147247
 30
0.0
 11
853.2805905999113
 21
485.6254167008845
 31
0.0
 12
850.7532090514322
 22
485.8150310978023
 32
0.0
 13
850.7532090514322
 23
485.8150310978023
 33
0.0
  0
MTEXT
  5
249D
330
2498
100
AcDbEntity
  8
cotes
 62
     0
100
AcDbMText
 10
884.4277443402896
 20
466.9577721834778
 30
0.0
 40
2.5
 41
0.0
 71
     5
 72
     1
  1
77°
 11
0.6259234721840597
 21
-0.7798844830928817
 31
0.0
 73
     1
 44
1.0
  0
POINT
  5
249E
330
2498
100
AcDbEntity
  8
Defpoints
 62
     0
100
AcDbPoint
 10
889.8362278205681
 20
454.9121865593687
 30
0.0
  0
POINT
  5
249F
330
2498
100
AcDbEntity
  8
Defpoints
 62
     0
100
AcDbPoint
 10
849.4640476939467
 20
479.9999999999998
 30
0.0
  0
POINT
  5
24A0
330
2498
100
AcDbEntity
  8
Defpoints
 62
     0
100
AcDbPoint
 10
1131.608161762363
 20
429.9999999999998
 30
0.0
  0
POINT
  5
24A1
330
2498
100
AcDbEntity
  8
Defpoints
 62
     0
100
AcDbPoint
 10
838.3793145617996
 20
429.9999999999998
 30
0.0
  0
POINT
  5
24A2
330
2498
100
AcDbEntity
  8
Defpoints
 62
     0
100
AcDbPoint
 10
838.3793145617996
 20
429.9999999999998
 30
0.0
  0
ENDBLK
  5
24A4
330
2498
100
AcDbEntity
  8
0
100
AcDbBlockEnd
  0
BLOCK
  5
24BF
330
24B4
100
AcDbEntity
  8
0
100
AcDbBlockBegin
  2
*D5
 70
     1
 10
0.0
 20
0.0
 30
0.0
  3
*D5
  1

  0
LINE
  5
24B5
330
24B4
100
AcDbEntity
  8
cotes
 62
     0
370
    -2
100
AcDbLine
 10
1092.861336470285
 20
480.495845837682
 30
0.0
 11
1062.40279950717
 21
520.1901840276339
 31
0.0
  0
ARC
  5
24B6
330
24B4
100
AcDbEntity
  8
cotes
 62
     0
370
    -2
100
AcDbCircle
 10
1131.608161762363
 20
430.0
 30
0.0
 40
112.4322389813417
100
AcDbArc
 50
128.7740331519864
 51
178.7259668480136
  0
SOLID
  5
24B7
330
24B4
100
AcDbEntity
  8
cotes
 62
     0
100
AcDbTrace
 10
1060.940100691914
 20
517.9823553889791
 30
0.0
 11
1061.454720820631
 21
517.3269085432593
 31
0.0
 12
1063.163751293431
 22
519.1984923522698
 32
0.0
 13
1063.163751293431
 23
519.1984923522698
 33
0.0
  0
SOLID
  5
24B8
330
24B4
100
AcDbEntity
  8
cotes
 62
     0
100
AcDbTrace
 10
1019.620358214693
 20
432.4952130683388
 30
0.0
 11
1018.787076385304
 21
432.5044779079977
 31
0.0
 12
1019.175922781022
 22
430.0
 32
0.0
 13
1019.175922781022
 23
430.0
 33
0.0
  0
MTEXT
  5
24B9
330
24B4
100
AcDbEntity
  8
cotes
 62
     0
100
AcDbMText
 10
1029.089114960135
 20
480.5567990116078
 30
0.0
 40
2.5
 41
0.0
 71
     5
 72
     1
  1
52°
 11
0.4422886902190005
 21
0.8968727415326886
 31
0.0
 73
     1
 44
1.0
  0
POINT
  5
24BA
330
24B4
100
AcDbEntity
  8
Defpoints
 62
     0
100
AcDbPoint
 10
1039.509063356809
 20
494.4884829658869
 30
0.0
  0
POINT
  5
24BB
330
24B4
100
AcDbEntity
  8
Defpoints
 62
     0
100
AcDbPoint
 10
1093.241812363415
 20
480.0
 30
0.0
  0
POINT
  5
24BC
330
24B4
100
AcDbEntity
  8
Defpoints
 62
     0
100
AcDbPoint
 10
1131.608161762363
 20
430.0
 30
0.0
  0
POINT
  5
24BD
330
24B4
100
AcDbEntity
  8
Defpoints
 62
     0
100
AcDbPoint
 10
838.3793145618
 20
430.0
 30
0.0
  0
POINT
  5
24BE
330
24B4
100
AcDbEntity
  8
Defpoints
 62
     0
100
AcDbPoint
 10
1131.608161762363
 20
430.0
 30
0.0
  0
ENDBLK
  5
24C0
330
24B4
100
AcDbEntity
  8
0
100
AcDbBlockEnd
  0
BLOCK
  5
256D
330
2563
100
AcDbEntity
  8
0
100
AcDbBlockBegin
  2
*D7
 70
     1
 10
0.0
 20
0.0
 30
0.0
  3
*D7
  1

  0
LINE
  5
2564
330
2563
100
AcDbEntity
  8
cotes
 62
     0
370
    -2
100
AcDbLine
 10
940.004268608348
 20
85.0
 30
0.0
 11
837.1293145617997
 21
85.00000000000003
 31
0.0
  0
LINE
  5
2565
330
2563
100
AcDbEntity
  8
cotes
 62
     0
370
    -2
100
AcDbLine
 10
940.004268608348
 20
499.9999999999998
 30
0.0
 11
837.1293145617999
 21
499.9999999999999
 31
0.0
  0
LINE
  5
2566
330
2563
100
AcDbEntity
  8
cotes
 62
     0
370
    -2
100
AcDbLine
 10
838.3793145617998
 20
87.50000000000003
 30
0.0
 11
838.3793145617998
 21
497.4999999999998
 31
0.0
  0
SOLID
  5
2567
330
2563
100
AcDbEntity
  8
cotes
 62
     0
100
AcDbTrace
 10
837.9626478951331
 20
87.50000000000003
 30
0.0
 11
838.7959812284664
 21
87.50000000000003
 31
0.0
 12
838.3793145617998
 22
85.00000000000003
 32
0.0
 13
838.3793145617998
 23
85.00000000000003
 33
0.0
  0
SOLID
  5
2568
330
2563
100
AcDbEntity
  8
cotes
 62
     0
100
AcDbTrace
 10
837.9626478951333
 20
497.4999999999998
 30
0.0
 11
838.7959812284664
 21
497.4999999999998
 31
0.0
 12
838.3793145617998
 22
499.9999999999999
 32
0.0
 13
838.3793145617998
 23
499.9999999999999
 33
0.0
  0
MTEXT
  5
2569
330
2563
100
AcDbEntity
  8
cotes
 62
     0
100
AcDbMText
 10
836.5043145617997
 20
292.5
 30
0.0
 40
2.5
 41
0.0
 71
     5
 72
     1
  1
415
 11
0.0000000000000001
 21
1.0
 31
0.0
 73
     1
 44
1.0
  0
POINT
  5
256A
330
2563
100
AcDbEntity
  8
Defpoints
 62
     0
100
AcDbPoint
 10
940.629268608348
 20
85.0
 30
0.0
  0
POINT
  5
256B
330
2563
100
AcDbEntity
  8
Defpoints
 62
     0
100
AcDbPoint
 10
940.629268608348
 20
499.9999999999998
 30
0.0
  0
POINT
  5
256C
330
2563
100
AcDbEntity
  8
Defpoints
 62
     0
100
AcDbPoint
 10
838.3793145617998
 20
499.9999999999999
 30
0.0
  0
ENDBLK
  5
256E
330
2563
100
AcDbEntity
  8
0
100
AcDbBlockEnd
  0
BLOCK
  5
266A
330
265F
100
AcDbEntity
  8
0
100
AcDbBlockBegin
  2
*D13
 70
     1
 10
0.0
 20
0.0
 30
0.0
  3
*D13
  1

  0
LINE
  5
2660
330
265F
100
AcDbEntity
  8
cotes
 62
     0
370
    -2
100
AcDbLine
 10
1650.624999999999
 20
445.3650794268632
 30
0.0
 11
1691.496601676321
 21
445.3650794268634
 31
0.0
  0
ARC
  5
2661
330
265F
100
AcDbEntity
  8
cotes
 62
     0
370
    -2
100
AcDbCircle
 10
1534.427656614087
 20
445.3650794268634
 30
0.0
 40
155.8189450622344
100
AcDbArc
 50
0.9192783658147931
 51
41.20350513789716
  0
SOLID
  5
2662
330
265F
100
AcDbEntity
  8
cotes
 62
     0
100
AcDbTrace
 10
1690.643199607899
 20
447.8683415369468
 30
0.0
 11
1689.809893089408
 21
447.8616564277244
 31
0.0
 12
1690.246601676321
 22
445.3650794268634
 32
0.0
 13
1690.246601676321
 23
445.3650794268634
 33
0.0
  0
SOLID
  5
2663
330
265F
100
AcDbEntity
  8
cotes
 62
     0
100
AcDbTrace
 10
1651.35059737496
 20
547.7315692202696
 30
0.0
 11
1651.973152324271
 21
548.285527503475
 31
0.0
 12
1649.999999999999
 22
549.8762132098074
 32
0.0
 13
1649.999999999999
 23
549.8762132098074
 33
0.0
  0
MTEXT
  5
2664
330
265F
100
AcDbEntity
  8
cotes
 62
     0
100
AcDbMText
 10
1681.587000172556
 20
502.0352471761421
 30
0.0
 40
2.5
 41
0.0
 71
     5
 72
     1
  1
42°
 11
0.359368064049091
 21
-0.9331959036245327
 31
0.0
 73
     1
 44
1.0
  0
POINT
  5
2665
330
265F
100
AcDbEntity
  8
Defpoints
 62
     0
100
AcDbPoint
 10
1685.591147286533
 20
483.169083553794
 30
0.0
  0
POINT
  5
2666
330
265F
100
AcDbEntity
  8
Defpoints
 62
     0
100
AcDbPoint
 10
1534.427656614087
 20
445.3650794268634
 30
0.0
  0
POINT
  5
2667
330
265F
100
AcDbEntity
  8
Defpoints
 62
     0
100
AcDbPoint
 10
1796.013498898595
 20
681.9150372955276
 30
0.0
  0
POINT
  5
2668
330
265F
100
AcDbEntity
  8
Defpoints
 62
     0
100
AcDbPoint
 10
1534.427656614087
 20
445.3650794268634
 30
0.0
  0
POINT
  5
2669
330
265F
100
AcDbEntity
  8
Defpoints
 62
     0
100
AcDbPoint
 10
1649.999999999999
 20
445.3650794268632
 30
0.0
  0
ENDBLK
  5
266B
330
265F
100
AcDbEntity
  8
0
100
AcDbBlockEnd
  0
BLOCK
  5
2691
330
2687
100
AcDbEntity
  8
0
100
AcDbBlockBegin
  2
*D14
 70
     1
 10
0.0
 20
0.0
 30
0.0
  3
*D14
  1

  0
ARC
  5
2688
330
2687
100
AcDbEntity
  8
cotes
 62
     0
370
    -2
100
AcDbCircle
 10
1784.336937916227
 20
693.092186530022
 30
0.0
 40
208.8915594729371
100
AcDbArc
 50
157.6857160911974
 51
221.4569391192502
  0
SOLID
  5
2689
330
2687
100
AcDbEntity
  8
cotes
 62
     0
100
AcDbTrace
 10
1590.703692879245
 20
772.5660616681994
 30
0.0
 11
1591.472714957964
 21
772.2450484490211
 31
0.0
 12
1592.051243576139
 22
774.7126212947671
 32
0.0
 13
1592.051243576139
 23
774.7126212947671
 33
0.0
  0
SOLID
  5
268A
330
2687
100
AcDbEntity
  8
cotes
 62
     0
100
AcDbTrace
 10
1628.093042681596
 20
555.0717922066737
 30
0.0
 11
1627.471810715515
 21
554.5163506807112
 31
0.0
 12
1629.448751276443
 22
552.9303755454493
 32
0.0
 13
1629.448751276443
 23
552.9303755454493
 33
0.0
  0
MTEXT
  5
268B
330
2687
100
AcDbEntity
  8
cotes
 62
     0
100
AcDbMText
 10
1580.202179515295
 20
658.6704447291593
 30
0.0
 40
2.5
 41
0.0
 71
     5
 72
     1
  1
65°
 11
0.1662753061325153
 21
-0.986079369305807
 31
0.0
 73
     1
 44
1.0
  0
POINT
  5
268C
330
2687
100
AcDbEntity
  8
Defpoints
 62
     0
100
AcDbPoint
 10
1575.497975545323
 20
697.7795541153275
 30
0.0
  0
POINT
  5
268D
330
2687
100
AcDbEntity
  8
Defpoints
 62
     0
100
AcDbPoint
 10
1482.206901618637
 20
821.338778158843
 30
0.0
  0
POINT
  5
268E
330
2687
100
AcDbEntity
  8
Defpoints
 62
     0
100
AcDbPoint
 10
1523.69199557823
 20
457.2287037517975
 30
0.0
  0
POINT
  5
268F
330
2687
100
AcDbEntity
  8
Defpoints
 62
     0
100
AcDbPoint
 10
1785.303127144983
 20
693.9665129392476
 30
0.0
  0
POINT
  5
2690
330
2687
100
AcDbEntity
  8
Defpoints
 62
     0
100
AcDbPoint
 10
1784.336937916227
 20
693.092186530022
 30
0.0
  0
ENDBLK
  5
2692
330
2687
100
AcDbEntity
  8
0
100
AcDbBlockEnd
  0
BLOCK
  5
26A1
330
2696
100
AcDbEntity
  8
0
100
AcDbBlockBegin
  2
*D15
 70
     1
 10
0.0
 20
0.0
 30
0.0
  3
*D15
  1

  0
LINE
  5
2697
330
2696
100
AcDbEntity
  8
cotes
 62
     0
370
    -2
100
AcDbLine
 10
1481.631586085228
 20
821.5829851141487
 30
0.0
 11
1276.866810627115
 21
908.5004755429322
 31
0.0
  0
ARC
  5
2698
330
2696
100
AcDbEntity
  8
cotes
 62
     0
370
    -2
100
AcDbCircle
 10
1482.206901618636
 20
821.338778158843
 30
0.0
 40
221.8233387459866
100
AcDbArc
 50
157.6457400185508
 51
174.3542599814491
  0
SOLID
  5
2699
330
2696
100
AcDbEntity
  8
cotes
 62
     0
100
AcDbTrace
 10
1276.669142236602
 20
905.8659722389167
 30
0.0
 11
1277.438052280805
 21
905.5446907605082
 31
0.0
 12
1278.017441693931
 22
908.0120616323208
 32
0.0
 13
1278.017441693931
 23
908.0120616323208
 33
0.0
  0
SOLID
  5
269A
330
2696
100
AcDbEntity
  8
cotes
 62
     0
100
AcDbTrace
 10
1261.87445761839
 20
843.1225220312132
 30
0.0
 11
1261.044717827974
 21
843.1998287233156
 31
0.0
 12
1261.227667646875
 22
840.6719560060146
 32
0.0
 13
1261.227667646875
 23
840.6719560060146
 33
0.0
  0
MTEXT
  5
269B
330
2696
100
AcDbEntity
  8
cotes
 62
     0
100
AcDbMText
 10
1265.153359558365
 20
875.4563043107685
 30
0.0
 40
2.5
 41
0.0
 71
     5
 72
     1
  1
18°
 11
0.2419218955996683
 21
0.9702957262759962
 31
0.0
 73
     1
 44
1.0
  0
POINT
  5
269C
330
2696
100
AcDbEntity
  8
Defpoints
 62
     0
100
AcDbPoint
 10
1270.07618779225
 20
886.1936458552962
 30
0.0
  0
POINT
  5
269D
330
2696
100
AcDbEntity
  8
Defpoints
 62
     0
100
AcDbPoint
 10
1482.206901618636
 20
821.338778158843
 30
0.0
  0
POINT
  5
269E
330
2696
100
AcDbEntity
  8
Defpoints
 62
     0
100
AcDbPoint
 10
1141.108212875881
 20
851.1810465673917
 30
0.0
  0
POINT
  5
269F
330
2696
100
AcDbEntity
  8
Defpoints
 62
     0
100
AcDbPoint
 10
1482.206901618636
 20
821.338778158843
 30
0.0
  0
POINT
  5
26A0
330
2696
100
AcDbEntity
  8
Defpoints
 62
     0
100
AcDbPoint
 10
1784.336937916227
 20
693.092186530022
 30
0.0
  0
ENDBLK
  5
26A2
330
2696
100
AcDbEntity
  8
0
100
AcDbBlockEnd
  0
BLOCK
  5
26BA
330
26B0
100
AcDbEntity
  8
0
100
AcDbBlockBegin
  2
*D16
 70
     1
 10
0.0
 20
0.0
 30
0.0
  3
*D16
  1

  0
LINE
  5
26B1
330
26B0
100
AcDbEntity
  8
cotes
 62
     0
370
    -2
100
AcDbLine
 10
1500.0
 20
84.375
 30
0.0
 11
1500.0
 21
-42.1012064548222
 31
0.0
  0
LINE
  5
26B2
330
26B0
100
AcDbEntity
  8
cotes
 62
     0
370
    -2
100
AcDbLine
 10
1660.503113073117
 20
84.375
 30
0.0
 11
1660.503113073117
 21
-42.1012064548222
 31
0.0
  0
LINE
  5
26B3
330
26B0
100
AcDbEntity
  8
cotes
 62
     0
370
    -2
100
AcDbLine
 10
1502.5
 20
-40.8512064548222
 30
0.0
 11
1658.003113073117
 21
-40.8512064548222
 31
0.0
  0
SOLID
  5
26B4
330
26B0
100
AcDbEntity
  8
cotes
 62
     0
100
AcDbTrace
 10
1502.5
 20
-40.43453978815554
 30
0.0
 11
1502.5
 21
-41.26787312148887
 31
0.0
 12
1500.0
 22
-40.8512064548222
 32
0.0
 13
1500.0
 23
-40.8512064548222
 33
0.0
  0
SOLID
  5
26B5
330
26B0
100
AcDbEntity
  8
cotes
 62
     0
100
AcDbTrace
 10
1658.003113073117
 20
-40.43453978815554
 30
0.0
 11
1658.003113073117
 21
-41.26787312148887
 31
0.0
 12
1660.503113073117
 22
-40.8512064548222
 32
0.0
 13
1660.503113073117
 23
-40.8512064548222
 33
0.0
  0
MTEXT
  5
26B6
330
26B0
100
AcDbEntity
  8
cotes
 62
     0
100
AcDbMText
 10
1580.251556536558
 20
-38.76787312148886
 30
0.0
 40
2.5
 41
0.0
 71
     5
 72
     1
  1
160,5
 73
     1
 44
1.0
  0
POINT
  5
26B7
330
26B0
100
AcDbEntity
  8
Defpoints
 62
     0
100
AcDbPoint
 10
1500.0
 20
85.0
 30
0.0
  0
POINT
  5
26B8
330
26B0
100
AcDbEntity
  8
Defpoints
 62
     0
100
AcDbPoint
 10
1660.503113073117
 20
85.0
 30
0.0
  0
POINT
  5
26B9
330
26B0
100
AcDbEntity
  8
Defpoints
 62
     0
100
AcDbPoint
 10
1660.503113073117
 20
-40.8512064548222
 30
0.0
  0
ENDBLK
  5
26BB
330
26B0
100
AcDbEntity
  8
0
100
AcDbBlockEnd
  0
ENDSEC
  0
SECTION
  2
ENTITIES
  0
CIRCLE
  5
DE
330
1F
100
AcDbEntity
  8
Transmission
100
AcDbCircle
 10
1803.893414523774
 20
700.0
 30
0.0
 40
170.0
  0
CIRCLE
  5
E4
330
1F
100
AcDbEntity
  8
Transmission
100
AcDbCircle
 10
1803.893414523774
 20
700.0
 30
0.0
 40
100.0
  0
CIRCLE
  5
E6
330
1F
100
AcDbEntity
  8
Transmission
100
AcDbCircle
 10
1803.893414523774
 20
700.0
 30
0.0
 40
61.0
  0
CIRCLE
  5
91B
330
1F
100
AcDbEntity
  8
roues
100
AcDbCircle
 10
200.0
 20
425.0
 30
0.0
 40
340.0
  0
CIRCLE
  5
A74
330
1F
100
AcDbEntity
  8
Transmission
100
AcDbCircle
 10
1500.0
 20
425.0
 30
0.0
 40
64.0
  0
CIRCLE
  5
A75
330
1F
100
AcDbEntity
  8
Transmission
100
AcDbCircle
 10
1500.0
 20
425.0
 30
0.0
 40
23.0
  0
XLINE
  5
1221
330
1F
100
AcDbEntity
  8
0
100
AcDbXline
 10
1500.0
 20
420.0
 30
0.0
 11
0.0
 21
1.0
 31
0.0
  0
CIRCLE
  5
1358
330
1F
100
AcDbEntity
  8
direction
100
AcDbCircle
 10
1804.3713476673
 20
700.0
 30
0.0
 40
20.0
  0
LWPOLYLINE
  5
1A85
330
1F
100
AcDbEntity
  8
fibre
100
AcDbPolyline
 90
        5
 70
     0
 43
0.0
 10
1093.19206955841
 20
561.1134412424316
 42
-0.2893504211870185
 10
861.8270333777491
 20
514.5278207880336
 10
730.1070479396588
 20
586.9836379195053
 10
553.6823857852883
 20
658.2180297798718
 42
-0.23607318192304
 10
381.4351004168644
 20
904.0449458879514
 42
-1.145063840526267
  0
LINE
  5
1A87
330
1F
100
AcDbEntity
  8
fibre
100
AcDbLine
 10
553.6823857852883
 20
658.2180297798718
 30
0.0
 11
861.8270333777486
 21
514.527820788034
 31
0.0
  0
CIRCLE
  5
1B77
330
1F
100
AcDbEntity
  8
roues
100
AcDbCircle
 10
1500.0
 20
425.0
 30
0.0
 40
340.0
  0
LINE
  5
1CD4
330
1F
100
AcDbEntity
  8
Transmission
100
AcDbLine
 10
1727.672954114187
 20
764.7336188927406
 30
0.0
 11
1457.80532822724
 21
471.8456704569726
 31
0.0
  0
LINE
  5
1D5F
330
1F
100
AcDbEntity
  8
Transmission
100
AcDbLine
 10
1761.333869663808
 20
743.6999444085746
 30
0.0
 11
1457.80532822724
 21
471.8456704569726
 31
0.0
  0
LINE
  5
1D60
330
1F
100
AcDbEntity
  8
Transmission
100
AcDbLine
 10
1484.607046628171
 20
442.0896748504096
 30
0.0
 11
1727.672954114187
 21
764.7336188927406
 31
0.0
  0
CIRCLE
  5
1DB4
330
1F
100
AcDbEntity
  8
fibre
100
AcDbCircle
 10
940.629268608348
 20
499.9999999999998
 30
0.0
 40
20.0
  0
LINE
  5
1DB5
330
1F
100
AcDbEntity
  8
fibre
100
AcDbLine
 10
940.629268608348
 20
519.9999999999997
 30
0.0
 11
940.629268608348
 21
479.9999999999998
 31
0.0
  0
LINE
  5
1DB6
330
1F
100
AcDbEntity
  8
fibre
100
AcDbLine
 10
920.6292686083481
 20
500.0
 30
0.0
 11
960.6292686083481
 21
500.0
 31
0.0
  0
XLINE
  5
1E83
330
1F
100
AcDbEntity
  8
0
100
AcDbXline
 10
200.0
 20
420.0
 30
0.0
 11
0.0
 21
1.0
 31
0.0
  0
LINE
  5
1EE3
330
1F
100
AcDbEntity
  8
cadre
100
AcDbLine
 10
538.1073996406371
 20
625.1879894047291
 30
0.0
 11
849.4640476939469
 21
480.0
 31
0.0
  0
LINE
  5
1EE5
330
1F
100
AcDbEntity
  8
cadre
100
AcDbLine
 10
838.3793145617998
 20
430.0
 30
0.0
 11
569.3280500957006
 21
555.4606650568281
 31
0.0
  0
LINE
  5
1EE6
330
1F
100
AcDbEntity
  8
cadre
100
AcDbLine
 10
569.3280500957006
 20
555.4606650568281
 30
0.0
 11
538.1073996406371
 21
625.1879894047291
 31
0.0
  0
LINE
  5
1EE7
330
1F
100
AcDbEntity
  8
cadre
100
AcDbLine
 10
553.7177248681689
 20
590.3243272307786
 30
0.0
 11
843.9216811278734
 21
455.0
 31
0.0
  0
XLINE
  5
1EF4
330
1F
100
AcDbEntity
  8
0
100
AcDbXline
 10
1139.913346937163
 20
310.3766178425623
 30
0.0
 11
1.0
 21
0.0
 31
0.0
  0
LINE
  5
1FAE
330
1F
100
AcDbEntity
  8
cadre
100
AcDbLine
 10
683.9739474275002
 20
522.8171296960543
 30
0.0
 11
220.0
 21
416.7938085012366
 31
0.0
  0
LINE
  5
1FAF
330
1F
100
AcDbEntity
  8
cadre
100
AcDbLine
 10
220.0
 20
425.0
 30
0.0
 11
681.9113427275584
 21
530.5466614963497
 31
0.0
  0
LINE
  5
1FB0
330
1F
100
AcDbEntity
  8
cadre
100
AcDbLine
 10
680.3022148432246
 20
538.3831599141292
 30
0.0
 11
220.0
 21
433.2061914987633
 31
0.0
  0
LINE
  5
1FB1
330
1F
100
AcDbEntity
  8
cadre
100
AcDbLine
 10
580.0267433485346
 20
572.4288718561431
 30
0.0
 11
220.0
 21
436.780934105459
 31
0.0
  0
LINE
  5
1FB2
330
1F
100
AcDbEntity
  8
cadre
100
AcDbLine
 10
576.497064168791
 20
579.7021468671873
 30
0.0
 11
220.0
 21
445.3303484161728
 31
0.0
  0
LINE
  5
1FB3
330
1F
100
AcDbEntity
  8
cadre
100
AcDbLine
 10
573.7346568097495
 20
587.2100830405117
 30
0.0
 11
220.0
 21
453.8797627268867
 31
0.0
  0
LWPOLYLINE
  5
1FB4
330
1F
100
AcDbEntity
  8
cadre
100
AcDbPolyline
 90
        7
 70
     0
 43
0.0
 10
239.9999999999999
 20
414.418199673727
 10
204.9999999999998
 20
414.418199673727
 10
204.9999999999998
 20
424.4181996737269
 42
0.9999999999999998
 10
194.9999999999998
 20
424.4181996737269
 10
194.9999999999998
 20
414.418199673727
 10
174.9999999999998
 20
414.418199673727
 10
174.9999999999998
 20
448.6919329561924
  0
LWPOLYLINE
  5
1FB5
330
1F
100
AcDbEntity
  8
cadre
100
AcDbPolyline
 90
        3
 70
     0
 43
0.0
 10
207.7216998101178
 20
464.418199673727
 10
239.9999999999999
 20
464.418199673727
 10
239.9999999999999
 20
414.418199673727
  0
CIRCLE
  5
1FB6
330
1F
100
AcDbEntity
  8
cadre
100
AcDbCircle
 10
179.9999999999998
 20
425.0
 30
0.0
 40
2.5
  0
CIRCLE
  5
1FB7
330
1F
100
AcDbEntity
  8
cadre
100
AcDbCircle
 10
179.9999999999998
 20
440.0
 30
0.0
 40
2.5
  0
LINE
  5
1FB8
330
1F
100
AcDbEntity
  8
cadre
100
AcDbLine
 10
220.0
 20
453.8797627268867
 30
0.0
 11
220.0
 21
436.780934105459
 31
0.0
  0
CIRCLE
  5
1FB9
330
1F
100
AcDbEntity
  8
cadre
100
AcDbCircle
 10
209.9999999999998
 20
454.4181996737269
 30
0.0
 40
2.5
  0
CIRCLE
  5
1FBA
330
1F
100
AcDbEntity
  8
cadre
100
AcDbCircle
 10
576.497064168791
 20
579.7021468671873
 30
0.0
 40
8.0
  0
CIRCLE
  5
1FBC
330
1F
100
AcDbEntity
  8
cadre
100
AcDbCircle
 10
681.9113427275584
 20
530.5466614963497
 30
0.0
 40
8.0
  0
LINE
  5
1FCF
330
1F
100
AcDbEntity
  8
direction
100
AcDbLine
 10
1048.038681663576
 20
890.7345554093412
 30
0.0
 11
1061.203757924659
 21
871.9328779884675
 31
0.0
  0
LINE
  5
1FE4
330
1F
100
AcDbEntity
  8
direction
100
AcDbLine
 10
1796.454859796751
 20
718.366524434292
 30
0.0
 11
1489.065151127494
 21
848.8457145263993
 31
0.0
  0
LINE
  5
1FE5
330
1F
100
AcDbEntity
  8
direction
100
AcDbLine
 10
1489.065151127494
 20
848.8457145263993
 30
0.0
 11
1482.206901618636
 21
821.3387781588428
 31
0.0
  0
LINE
  5
1FE6
330
1F
100
AcDbEntity
  8
direction
100
AcDbLine
 10
1482.206901618636
 20
821.3387781588428
 30
0.0
 11
1784.336937916227
 21
693.0921865300218
 31
0.0
  0
LINE
  5
2023
330
1F
100
AcDbEntity
  8
cadre
100
AcDbLine
 10
849.4640476939469
 20
480.0
 30
0.0
 11
1093.241812363415
 21
480.0
 31
0.0
  0
LINE
  5
2025
330
1F
100
AcDbEntity
  8
cadre
100
AcDbLine
 10
1131.608161762363
 20
430.0
 30
0.0
 11
838.3793145617998
 21
430.0
 31
0.0
  0
LINE
  5
2026
330
1F
100
AcDbEntity
  8
cadre
100
AcDbLine
 10
1112.424987062889
 20
455.0
 30
0.0
 11
843.9216811278734
 21
455.0
 31
0.0
  0
DIMENSION
  5
20A7
330
1F
100
AcDbEntity
  8
cotes
100
AcDbDimension
  2
*D1
 10
200.0
 20
-39.16043100880233
 30
0.0
 11
850.0
 21
-33.53543100880233
 31
0.0
 70
    32
 71
     5
 42
1300.0
  3
ISO-25
100
AcDbAlignedDimension
 13
1500.0
 23
85.0
 33
0.0
 14
200.0
 24
85.0
 34
0.0
100
AcDbRotatedDimension
1001
ACAD
1000
DSTYLE
1002
{
1070
   140
1040
10.0
1002
}
  0
DIMENSION
  5
20CA
330
1F
100
AcDbEntity
  8
cotes
100
AcDbDimension
  2
*D2
 10
1901.071880106163
 20
84.99999999999998
 30
0.0
 11
1895.446880106164
 21
392.5000000000003
 31
0.0
 70
    32
 71
     5
 42
615.0
  3
ISO-25
100
AcDbAlignedDimension
 13
1804.3713476673
 23
700.0
 33
0.0
 14
1823.280206371985
 24
85.0
 34
0.0
 50
90.0
100
AcDbRotatedDimension
1001
ACAD
1000
DSTYLE
1002
{
1070
   140
1040
10.0
1002
}
  0
XLINE
  5
2203
330
1F
100
AcDbEntity
  8
0
100
AcDbXline
 10
0.0
 20
550.0
 30
0.0
 11
1.0
 21
0.0
 31
0.0
  0
XLINE
  5
2226
330
1F
100
AcDbEntity
  8
Defpoints
100
AcDbXline
 10
940.629268608348
 20
500.0
 30
0.0
 11
0.0
 21
1.0
 31
0.0
  0
XLINE
  5
2236
330
1F
100
AcDbEntity
  8
0
100
AcDbXline
 10
1628.761276459842
 20
130.3320406895828
 30
0.0
 11
-0.5735764363510462
 21
0.8191520442889917
 31
0.0
  0
LINE
  5
224D
330
1F
100
AcDbEntity
  8
cadre
100
AcDbLine
 10
1161.987207688514
 20
829.2082623232516
 30
0.0
 11
1237.803525832181
 21
720.9313386878484
 31
0.0
  0
LINE
  5
224E
330
1F
100
AcDbEntity
  8
cadre
100
AcDbLine
 10
1237.803525832181
 20
720.9313386878485
 30
0.0
 11
1207.451067430212
 21
699.6783185115934
 31
0.0
  0
LINE
  5
224F
330
1F
100
AcDbEntity
  8
cadre
100
AcDbLine
 10
1207.451067430212
 20
699.6783185115934
 30
0.0
 11
1131.237764661437
 21
807.6772705199426
 31
0.0
  0
LINE
  5
2250
330
1F
100
AcDbEntity
  8
cadre
100
AcDbLine
 10
1131.237764661437
 20
807.6772705199426
 30
0.0
 11
1161.987207688514
 21
829.2082623232516
 31
0.0
  0
LINE
  5
2257
330
1F
100
AcDbEntity
  8
direction
100
AcDbLine
 10
1112.414908581121
 20
892.1593319027849
 30
0.0
 11
1089.478651341029
 21
876.0991916849558
 31
0.0
  0
LINE
  5
2258
330
1F
100
AcDbEntity
  8
direction
100
AcDbLine
 10
1089.478651341029
 20
876.0991916849558
 30
0.0
 11
1222.948119509398
 21
685.4850367594293
 31
0.0
  0
LINE
  5
225A
330
1F
100
AcDbEntity
  8
direction
100
AcDbLine
 10
1245.884376749492
 20
701.5451769772597
 30
0.0
 11
1112.414908581121
 21
892.1593319027849
 31
0.0
  0
LINE
  5
225B
330
1F
100
AcDbEntity
  8
direction
100
AcDbLine
 10
1100.946779961054
 20
884.1292617938558
 30
0.0
 11
1245.887776856446
 21
677.1320659825509
 31
0.0
  0
LINE
  5
2305
330
1F
100
AcDbEntity
  8
direction
100
AcDbLine
 10
1252.546730699932
 20
681.7947156603503
 30
0.0
 11
1464.263129166654
 21
446.6073150354406
 31
0.0
  0
LINE
  5
2306
330
1F
100
AcDbEntity
  8
direction
100
AcDbLine
 10
1464.263129166654
 20
446.6073150354406
 30
0.0
 11
1452.399504841706
 21
435.8716539995985
 31
0.0
  0
LINE
  5
2307
330
1F
100
AcDbEntity
  8
direction
100
AcDbLine
 10
1452.39950484172
 20
435.8716539995824
 30
0.0
 11
1239.228823012965
 21
672.4694163047555
 31
0.0
  0
LINE
  5
2308
330
1F
100
AcDbEntity
  8
direction
100
AcDbLine
 10
1245.887776856446
 20
677.132065982551
 30
0.0
 11
1458.331317004187
 21
441.2394845175115
 31
0.0
  0
LINE
  5
2311
330
1F
100
AcDbEntity
  8
direction
100
AcDbLine
 10
1796.013498898596
 20
681.9150372955278
 30
0.0
 11
1534.427656614087
 21
445.3650794268634
 31
0.0
  0
LINE
  5
2312
330
1F
100
AcDbEntity
  8
direction
100
AcDbLine
 10
1534.427656614087
 20
445.3650794268634
 30
0.0
 11
1523.69199557823
 21
457.2287037517973
 31
0.0
  0
LINE
  5
2313
330
1F
100
AcDbEntity
  8
direction
100
AcDbLine
 10
1523.69199557823
 20
457.2287037517973
 30
0.0
 11
1785.303127144983
 21
693.9665129392475
 31
0.0
  0
LINE
  5
2314
330
1F
100
AcDbEntity
  8
direction
100
AcDbLine
 10
1803.893414523774
 20
700.0
 30
0.0
 11
1529.659060812335
 21
451.8391525896442
 31
0.0
  0
LINE
  5
232E
330
1F
100
AcDbEntity
  8
direction
100
AcDbLine
 10
1231.552616081407
 20
667.0944783464208
 30
0.0
 11
1260.222937631522
 21
687.1696536187073
 31
0.0
  0
LINE
  5
232F
330
1F
100
AcDbEntity
  8
direction
100
AcDbLine
 10
1260.222937631522
 20
687.1696536187073
 30
0.0
 11
1248.751408904501
 21
703.5526945044871
 31
0.0
  0
LINE
  5
2330
330
1F
100
AcDbEntity
  8
direction
100
AcDbLine
 10
1248.751408904501
 20
703.5526945044871
 30
0.0
 11
1220.081087354386
 21
683.4775192322005
 31
0.0
  0
LINE
  5
2331
330
1F
100
AcDbEntity
  8
direction
100
AcDbLine
 10
1220.081087354386
 20
683.4775192322005
 30
0.0
 11
1231.552616081407
 21
667.0944783464208
 31
0.0
  0
LINE
  5
233D
330
1F
100
AcDbEntity
  8
direction
100
AcDbLine
 10
1489.065151127494
 20
848.8457145263993
 30
0.0
 11
1120.143188767821
 21
881.1222039586082
 31
0.0
  0
LINE
  5
233F
330
1F
100
AcDbEntity
  8
direction
100
AcDbLine
 10
1141.108212875881
 20
851.1810465673915
 30
0.0
 11
1482.206901618636
 21
821.3387781588428
 31
0.0
  0
LINE
  5
2340
330
1F
100
AcDbEntity
  8
direction
100
AcDbLine
 10
1485.636026373065
 20
835.092246342621
 30
0.0
 11
1112.419543335125
 21
867.7444576494561
 31
0.0
  0
LINE
  5
2348
330
1F
100
AcDbEntity
  8
direction
100
AcDbLine
 10
1485.385993778771
 20
835.1141213601337
 30
0.0
 11
1804.3713476673
 21
700.0
 31
0.0
  0
XLINE
  5
2362
330
1F
100
AcDbEntity
  8
0
100
AcDbXline
 10
1650.0
 20
100.0
 30
0.0
 11
-0.5735764363510462
 21
0.8191520442889917
 31
0.0
  0
XLINE
  5
237B
330
1F
100
AcDbEntity
  8
0
100
AcDbXline
 10
1180.698457144725
 20
709.8000591544458
 30
0.0
 11
0.2588190451025207
 21
0.9659258262890682
 31
0.0
  0
LINE
  5
237E
330
1F
100
AcDbEntity
  8
cadre
100
AcDbLine
 10
1204.846602801952
 20
703.3295830268827
 30
0.0
 11
1131.608161762363
 21
430.0
 31
0.0
  0
LINE
  5
237F
330
1F
100
AcDbEntity
  8
cadre
100
AcDbLine
 10
1186.062666586901
 20
729.8195613350864
 30
0.0
 11
1112.424987062889
 21
455.0
 31
0.0
  0
LINE
  5
2380
330
1F
100
AcDbEntity
  8
cadre
100
AcDbLine
 10
1167.27873037185
 20
756.3095396432901
 30
0.0
 11
1093.241812363415
 21
480.0
 31
0.0
  0
LINE
  5
2381
330
1F
100
AcDbEntity
  8
cadre
100
AcDbLine
 10
1093.241812363415
 20
480.0
 30
0.0
 11
1131.608161762363
 21
430.0
 31
0.0
  0
LINE
  5
2382
330
1F
100
AcDbEntity
  8
cadre
100
AcDbLine
 10
849.4640476939469
 20
480.0
 30
0.0
 11
838.3793145617998
 21
430.0
 31
0.0
  0
LINE
  5
239F
330
1F
100
AcDbEntity
  8
Transmission
100
AcDbLine
 10
1119.849511181635
 20
814.3524246514799
 30
0.0
 11
1131.237764661437
 21
807.6772705199426
 31
0.0
  0
LINE
  5
23A0
330
1F
100
AcDbEntity
  8
Transmission
100
AcDbLine
 10
1159.168809307507
 20
841.8840935963299
 30
0.0
 11
1119.849511181635
 21
814.3524246514799
 31
0.0
  0
LINE
  5
23A1
330
1F
100
AcDbEntity
  8
Transmission
100
AcDbLine
 10
1161.54639030013
 20
828.8995986649315
 30
0.0
 11
1159.168809307507
 21
841.8840935963299
 31
0.0
  0
LINE
  5
23A2
330
1F
100
AcDbEntity
  8
Transmission
100
AcDbLine
 10
1237.803525832181
 20
720.9313386878484
 30
0.0
 11
1249.191779311983
 21
714.2561845563114
 31
0.0
  0
LINE
  5
23A3
330
1F
100
AcDbEntity
  8
Transmission
100
AcDbLine
 10
1249.191779311983
 20
714.2561845563114
 30
0.0
 11
1209.872481186111
 21
686.7245156114611
 31
0.0
  0
LINE
  5
23A4
330
1F
100
AcDbEntity
  8
Transmission
100
AcDbLine
 10
1209.872481186111
 20
686.7245156114611
 30
0.0
 11
1207.494900193488
 21
699.7090105428598
 31
0.0
  0
LINE
  5
23C0
330
1F
100
AcDbEntity
  8
direction
100
AcDbLine
 10
1457.552741138324
 20
837.5492154352258
 30
0.0
 11
1254.487173268011
 21
695.3611740615973
 31
0.0
  0
LINE
  5
23C1
330
1F
100
AcDbEntity
  8
direction
100
AcDbLine
 10
1256.790242888638
 20
692.0720497735113
 30
0.0
 11
1445.91384062761
 21
824.5140095602124
 31
0.0
  0
LINE
  5
23C2
330
1F
100
AcDbEntity
  8
direction
100
AcDbLine
 10
1252.184103647385
 20
698.6502983496832
 30
0.0
 11
1433.509194975816
 21
825.5992754298008
 31
0.0
  0
LINE
  5
23D2
330
1F
100
AcDbEntity
  8
cadre
100
AcDbLine
 10
1137.003562272688
 20
799.506779583517
 30
0.0
 11
1137.003562272688
 21
643.3210740895296
 31
0.0
  0
XLINE
  5
23D3
330
1F
100
AcDbEntity
  8
0
100
AcDbXline
 10
0.0
 20
1000.0
 30
0.0
 11
1.0
 21
0.0
 31
0.0
  0
XLINE
  5
23D4
330
1F
100
AcDbEntity
  8
0
100
AcDbXline
 10
1254.487173268011
 20
695.3611740615973
 30
0.0
 11
0.819152044288992
 21
0.5735764363510462
 31
0.0
  0
XLINE
  5
2413
330
1F
100
AcDbEntity
  8
0
100
AcDbXline
 10
1601.220180398467
 20
824.979943182164
 30
0.0
 11
-0.9961946980917455
 21
0.0871557427476582
 31
0.0
  0
XLINE
  5
2415
330
1F
100
AcDbEntity
  8
0
100
AcDbXline
 10
1120.60642902402
 20
897.8950962663018
 30
0.0
 11
0.819152044288992
 21
0.5735764363510462
 31
0.0
  0
XLINE
  5
242F
330
1F
100
AcDbEntity
  8
0
100
AcDbXline
 10
1211.12840608946
 20
726.7735920590166
 30
0.0
 11
-0.9659258262890688
 21
0.2588190451025186
 31
0.0
  0
XLINE
  5
244C
330
1F
100
AcDbEntity
  8
0
100
AcDbXline
 10
1173.690863039362
 20
780.239944543319
 30
0.0
 11
-0.9659258262890675
 21
0.2588190451025238
 31
0.0
  0
XLINE
  5
246F
330
1F
100
AcDbEntity
  8
0
100
AcDbXline
 10
0.0
 20
1100.0
 30
0.0
 11
1.0
 21
0.0
 31
0.0
  0
DIMENSION
  5
2497
330
1F
100
AcDbEntity
  8
cotes
100
AcDbDimension
  2
*D4
 10
838.3793145617998
 20
430.0
 30
0.0
 11
884.4277443402894
 21
466.9577721834778
 31
0.0
 70
    34
 71
     5
 42
1.352630170295603
  3
ISO-25
100
AcDb2LineAngularDimension
 13
1131.608161762363
 23
430.0
 33
0.0
 14
838.3793145617998
 24
430.0
 34
0.0
 15
849.4640476939469
 25
480.0
 35
0.0
 16
889.8362278205681
 26
454.9121865593687
 36
0.0
  0
DIMENSION
  5
24B3
330
1F
100
AcDbEntity
  8
cotes
100
AcDbDimension
  2
*D5
 10
1131.608161762363
 20
430.0
 30
0.0
 11
1029.089114960135
 21
480.5567990116079
 31
0.0
 70
    34
 71
     5
 42
0.9162978572970212
  3
ISO-25
100
AcDb2LineAngularDimension
 13
1131.608161762363
 23
430.0
 33
0.0
 14
838.3793145617998
 24
430.0
 34
0.0
 15
1093.241812363415
 25
480.0
 35
0.0
 16
1039.509063356809
 26
494.4884829658869
 36
0.0
  0
XLINE
  5
2506
330
1F
100
AcDbEntity
  8
0
100
AcDbXline
 10
1500.0
 20
425.0
 30
0.0
 11
1.0
 21
0.0
 31
0.0
  0
LINE
  5
2529
330
1F
100
AcDbEntity
  8
cadre
100
AcDbLine
 10
207.7216998101178
 20
464.418199673727
 30
0.0
 11
174.9999999999998
 21
448.6919329561924
 31
0.0
  0
LINE
  5
252A
330
1F
100
AcDbEntity
  8
cadre
100
AcDbLine
 10
220.0
 20
433.2061914987633
 30
0.0
 11
220.0
 21
416.7938085012366
 31
0.0
  0
XLINE
  5
2538
330
1F
100
AcDbEntity
  8
0
100
AcDbXline
 10
1500.0
 20
85.0
 30
0.0
 11
1.0
 21
0.0
 31
0.0
  0
XLINE
  5
255F
330
1F
100
AcDbEntity
  8
0
100
AcDbXline
 10
1411.417466981018
 20
439.6415147272806
 30
0.0
 11
0.819152044288992
 21
0.5735764363510462
 31
0.0
  0
CIRCLE
  5
2561
330
1F
100
AcDbEntity
  8
0
100
AcDbCircle
 10
1500.0
 20
425.0
 30
0.0
 40
400.0
  0
DIMENSION
  5
2562
330
1F
100
AcDbEntity
  8
cotes
100
AcDbDimension
  2
*D7
 10
838.3793145617998
 20
499.9999999999999
 30
0.0
 11
836.5043145617997
 21
292.5
 31
0.0
 70
    32
 71
     5
 42
414.9999999999998
  3
ISO-25
100
AcDbAlignedDimension
 13
940.629268608348
 23
85.0
 33
0.0
 14
940.629268608348
 24
499.9999999999998
 34
0.0
 50
90.0
100
AcDbRotatedDimension
  0
CIRCLE
  5
257A
330
1F
100
AcDbEntity
  8
0
100
AcDbCircle
 10
1500.0
 20
425.0
 30
0.0
 40
355.0
  0
XLINE
  5
258E
330
1F
100
AcDbEntity
  8
0
100
AcDbXline
 10
1500.0
 20
425.0
 30
0.0
 11
0.741476520308355
 21
0.6709788147411317
 31
0.0
  0
XLINE
  5
25E9
330
1F
100
AcDbEntity
  8
0
100
AcDbXline
 10
1660.503113073145
 20
85.0
 30
0.0
 11
0.0
 21
1.0
 31
0.0
  0
XLINE
  5
2609
330
1F
100
AcDbEntity
  8
0
100
AcDbXline
 10
1485.170469593833
 20
411.5804237051774
 30
0.0
 11
-0.6709788147411315
 21
0.7414765203083551
 31
0.0
  0
XLINE
  5
2626
330
1F
100
AcDbEntity
  8
0
100
AcDbXline
 10
940.004268608348
 20
499.9999999999998
 30
0.0
 11
0.9742325798034471
 21
0.2255457391517742
 31
0.0
  0
LINE
  5
265D
330
1F
100
AcDbEntity
  8
cotes
100
AcDbLine
 10
1534.427656614087
 20
445.3650794268634
 30
0.0
 11
1650.0
 21
445.3650794268634
 31
0.0
  0
DIMENSION
  5
265E
330
1F
100
AcDbEntity
  8
cotes
100
AcDbDimension
  2
*D13
 10
1650.0
 20
445.3650794268634
 30
0.0
 11
1681.587000172556
 21
502.0352471761423
 31
0.0
 70
    34
 71
     5
 42
0.735181262244526
  3
ISO-25
100
AcDb2LineAngularDimension
 13
1796.013498898596
 23
681.9150372955278
 33
0.0
 14
1534.427656614087
 24
445.3650794268634
 34
0.0
 15
1534.427656614087
 25
445.3650794268634
 35
0.0
 16
1685.591147286533
 26
483.169083553794
 36
0.0
  0
LWPOLYLINE
  5
2675
330
1F
100
AcDbEntity
  8
direction
100
AcDbPolyline
 90
       24
 70
     1
 43
0.0
 10
1433.09594726699
 20
458.9536114117284
 10
1443.499974823673
 20
468.3214399007523
 10
1463.573893014439
 20
446.0270951364305
 10
1465.803327490871
 20
448.0344869555072
 10
1523.034486955507
 20
459.1966725091281
 10
1525.041878774583
 20
456.9672380326961
 10
1539.904775284131
 20
470.3498501598731
 10
1549.272603773155
 20
459.9458226031895
 10
1534.409707263607
 20
446.5632104760125
 10
1536.417099082684
 20
444.3337759995802
 10
1510.407030190975
 20
420.9142047770201
 10
1503.715724127386
 20
428.3456530317942
 42
0.4142135623730951
 10
1496.654346968205
 20
428.7157241273869
 42
0.4142135623730951
 10
1496.284275872612
 20
421.6543469682056
 10
1502.975581936201
 20
414.2228987134317
 10
1499.259857808814
 20
410.8772456816373
 10
1505.951163872403
 20
403.4457974268635
 42
-0.4142135623730952
 10
1505.211021681217
 20
389.323043108501
 10
1497.779573426443
 20
382.6317370449124
 10
1497.777188384365
 20
387.3356556585197
 42
-0.198912367379658
 10
1491.334546978058
 20
390.6194148074171
 42
1.588754142663284
 10
1491.088267362855
 20
390.0631852996862
 10
1450.940430981323
 20
434.6518748283299
 10
1453.169865457756
 20
436.6592666474065
  0
CIRCLE
  5
2676
330
1F
100
AcDbEntity
  8
direction
100
AcDbCircle
 10
1498.519715617629
 20
396.754491363275
 30
0.0
 40
5.0
  0
CIRCLE
  5
2677
330
1F
100
AcDbEntity
  8
direction
100
AcDbCircle
 10
1481.421379363064
 20
408.2717348410286
 30
0.0
 40
2.5
  0
CIRCLE
  5
2678
330
1F
100
AcDbEntity
  8
direction
100
AcDbCircle
 10
1482.901663745435
 20
436.5172434777536
 30
0.0
 40
5.0
  0
XLINE
  5
2682
330
1F
100
AcDbEntity
  8
0
100
AcDbXline
 10
1803.893414523773
 20
700.0
 30
0.0
 11
-0.9205048534524403
 21
0.3907311284892738
 31
0.0
  0
DIMENSION
  5
2686
330
1F
100
AcDbEntity
  8
cotes
100
AcDbDimension
  2
*D14
 10
1784.336937916227
 20
693.0921865300218
 30
0.0
 11
1580.202179515295
 21
658.6704447291594
 31
0.0
 70
    34
 71
     5
 42
1.136953816913752
  3
ISO-25
100
AcDb2LineAngularDimension
 13
1523.69199557823
 23
457.2287037517973
 33
0.0
 14
1785.303127144983
 24
693.9665129392475
 34
0.0
 15
1482.206901618636
 25
821.3387781588428
 35
0.0
 16
1575.497975545323
 26
697.7795541153275
 36
0.0
  0
XLINE
  5
2693
330
1F
100
AcDbEntity
  8
0
100
AcDbXline
 10
940.629268608348
 20
500.144694490712
 30
0.0
 11
1.0
 21
0.0
 31
0.0
  0
XLINE
  5
2694
330
1F
100
AcDbEntity
  8
0
100
AcDbXline
 10
940.629268608348
 20
950.1446944907121
 30
0.0
 11
1.0
 21
0.0
 31
0.0
  0
DIMENSION
  5
2695
330
1F
100
AcDbEntity
  8
cotes
100
AcDbDimension
  2
*D15
 10
1784.336937916227
 20
693.0921865300218
 30
0.0
 11
1265.153359558365
 21
875.4563043107685
 31
0.0
 70
    34
 71
     5
 42
0.3141592653589798
  3
ISO-25
100
AcDb2LineAngularDimension
 13
1141.108212875881
 23
851.1810465673915
 33
0.0
 14
1482.206901618636
 24
821.3387781588428
 34
0.0
 15
1482.206901618636
 25
821.3387781588428
 35
0.0
 16
1270.07618779225
 26
886.1936458552962
 36
0.0
  0
LINE
  5
26AC
330
1F
100
AcDbEntity
  8
direction
100
AcDbLine
 10
1494.0
 20
831.5419501745459
 30
0.0
 11
1494.0
 21
454.5578138561514
 31
0.0
  0
LINE
  5
26AD
330
1F
100
AcDbEntity
  8
direction
100
AcDbLine
 10
1506.0
 20
455.8743196861769
 30
0.0
 11
1506.0
 21
826.4482523800307
 31
0.0
  0
LINE
  5
26AE
330
1F
100
AcDbEntity
  8
direction
100
AcDbLine
 10
1500.0
 20
828.9239982524039
 30
0.0
 11
1500.0
 21
454.7040985348282
 31
0.0
  0
DIMENSION
  5
26AF
330
1F
100
AcDbEntity
  8
cotes
100
AcDbDimension
  2
*D16
 10
1660.503113073117
 20
-40.8512064548222
 30
0.0
 11
1580.251556536558
 21
-38.76787312148886
 31
0.0
 70
    32
 71
     5
 42
160.5031130731176
  3
ISO-25
100
AcDbAlignedDimension
 13
1500.0
 23
85.0
 33
0.0
 14
1660.503113073117
 24
85.0
 34
0.0
100
AcDbRotatedDimension
  0
XLINE
  5
26BD
330
1F
100
AcDbEntity
  8
0
100
AcDbXline
 10
1650.0
 20
99.99999999996015
 30
0.0
 11
1.0
 21
0.0
 31
0.0
  0
VIEWPORT
  5
DA
330
1B
100
AcDbEntity
 67
     1
  8
0
100
AcDbViewport
 10
143.4359283447265
 20
98.26624727249146
 30
0.0
 40
387.1480060661834
 41
222.1517806396484
 68
     1
 69
     1
 12
143.4359283447265
 22
98.26624727249146
 13
0.0
 23
0.0
 14
10.0
 24
10.0
 15
10.0
 25
10.0
 16
0.0
 26
0.0
 36
1.0
 17
0.0
 27
0.0
 37
0.0
 42
50.0
 43
0.0
 44
0.0
 45
222.1517806396484
 50
0.0
 51
0.0
 72
   100
 90
    32800
  1

281
     0
 71
     1
 74
     0
110
0.0
120
0.0
130
0.0
111
1.0
121
0.0
131
0.0
112
0.0
122
1.0
132
0.0
 79
     0
146
0.0
  0
VIEWPORT
  5
DC
330
1B
100
AcDbEntity
 67
     1
  8
cadre
100
AcDbViewport
 10
143.4359202384948
 20
98.18157792091369
 30
0.0
 40
229.4974723815918
 41
157.0905246734619
 68
     2
 69
     2
 12
1373.72971197933
 22
649.4913573092121
 13
0.0
 23
0.0
 14
10.0
 24
10.0
 15
10.0
 25
10.0
 16
0.0
 26
0.0
 36
1.0
 17
0.0
 27
0.0
 37
0.0
 42
50.0
 43
0.0
 44
0.0
 45
1824.770642201831
 50
0.0
 51
0.0
 72
   100
 90
    32864
  1

281
     0
 71
     1
 74
     0
110
0.0
120
0.0
130
0.0
111
1.0
121
0.0
131
0.0
112
0.0
122
1.0
132
0.0
 79
     0
146
0.0
  0
ENDSEC
  0
SECTION
  2
OBJECTS
  0
DICTIONARY
  5
C
330
0
100
AcDbDictionary
281
     1
  3
ACAD_GROUP
350
D
  3
ACAD_LAYOUT
350
1A
  3
ACAD_MLINESTYLE
350
17
  3
ACAD_PLOTSETTINGS
350
19
  3
ACAD_PLOTSTYLENAME
350
E
  3
DWGPROPS
350
1978
  0
DICTIONARY
  5
D
102
{ACAD_REACTORS
330
C
102
}
330
C
100
AcDbDictionary
281
     1
  0
DICTIONARY
  5
1A
102
{ACAD_REACTORS
330
C
102
}
330
C
100
AcDbDictionary
281
     1
  3
Layout1
350
1E
  3
Layout2
350
26
  3
Model
350
22
  0
DICTIONARY
  5
17
102
{ACAD_REACTORS
330
C
102
}
330
C
100
AcDbDictionary
281
     1
  3
Standard
350
18
  0
DICTIONARY
  5
19
102
{ACAD_REACTORS
330
C
102
}
330
C
100
AcDbDictionary
281
     1
  0
ACDBDICTIONARYWDFLT
  5
E
102
{ACAD_REACTORS
330
C
102
}
330
C
100
AcDbDictionary
281
     1
  3
Normal
350
F
100
AcDbDictionaryWithDefault
340
F
  0
XRECORD
  5
1978
102
{ACAD_REACTORS
330
C
102
}
330
C
100
AcDbXrecord
280
     1
  1
DWGPROPS COOKIE
  2

  3

  4

  6

  7

  8
jeanlou
  9

300
=
301
=
302
=
303
=
304
=
305
=
306
=
307
=
308
=
309
=
 40
8.614570810185185
 41
2453261.787012975
 42
2454137.961551458
  1

 90
        0
  0
LAYOUT
  5
1E
102
{ACAD_REACTORS
330
1A
102
}
330
1A
100
AcDbPlotSettings
  1

  2
Brother HL-5040 series
  4
A4
  6

 40
6.720416545867919
 41
5.027085304260253
 42
6.889755249023437
 43
5.027069091796875
 44
209.9733276367187
 45
296.9259948730469
 46
0.0
 47
0.0
 48
0.0
 49
0.0
140
0.0
141
0.0
142
1.0
143
1.0
 70
   688
 72
     1
 73
     1
 74
     5
  7
monochrome.ctb
 75
    16
147
1.0
148
0.0
149
0.0
100
AcDbLayout
  1
Layout1
 70
     1
 71
     1
 10
-5.027069091796875
 20
-6.720416545867919
 11
291.89892578125
 21
203.2529110908508
 12
0.0
 22
0.0
 32
0.0
 14
28.68718404769896
 24
19.63631558418273
 34
0.0
 15
258.1846564292908
 25
176.7268402576446
 35
0.0
146
0.0
 13
0.0
 23
0.0
 33
0.0
 16
1.0
 26
0.0
 36
0.0
 17
0.0
 27
1.0
 37
0.0
 76
     0
330
1B
331
DA
  0
LAYOUT
  5
26
102
{ACAD_REACTORS
330
1A
102
}
330
1A
100
AcDbPlotSettings
  1

  2
Brother HL-5040 series
  4

  6

 40
0.0
 41
0.0
 42
0.0
 43
0.0
 44
0.0
 45
0.0
 46
0.0
 47
0.0
 48
0.0
 49
0.0
140
0.0
141
0.0
142
1.0
143
1.0
 70
   688
 72
     0
 73
     0
 74
     5
  7
monochrome.ctb
 75
    16
147
1.0
148
0.0
149
0.0
100
AcDbLayout
  1
Layout2
 70
     1
 71
     2
 10
0.0
 20
0.0
 11
12.0
 21
9.0
 12
0.0
 22
0.0
 32
0.0
 14
0.0
 24
0.0
 34
0.0
 15
0.0
 25
0.0
 35
0.0
146
0.0
 13
0.0
 23
0.0
 33
0.0
 16
1.0
 26
0.0
 36
0.0
 17
0.0
 27
1.0
 37
0.0
 76
     0
330
23
  0
LAYOUT
  5
22
102
{ACAD_REACTORS
330
1A
102
}
330
1A
100
AcDbPlotSettings
  1

  2
Brother HL-5040 series.pc3
  4
A4
  6

 40
6.720416545867919
 41
5.027085304260253
 42
6.889755249023437
 43
5.027069091796875
 44
209.9733276367187
 45
296.9259948730469
 46
3.04
 47
-18.96
 48
0.0
 49
0.0
140
0.0
141
0.0
142
1.0
143
8.0
 70
 11956
 72
     1
 73
     1
 74
     0
  7
Screening 100%.ctb
 75
    19
147
0.125
148
345.4026541105558
149
199.2746785793588
100
AcDbLayout
  1
Model
 70
     1
 71
     0
 10
0.0
 20
0.0
 11
12.0
 21
9.0
 12
0.0
 22
0.0
 32
0.0
 14
0.0
 24
0.0
 34
0.0
 15
0.0
 25
0.0
 35
0.0
146
0.0
 13
0.0
 23
0.0
 33
0.0
 16
1.0
 26
0.0
 36
0.0
 17
0.0
 27
1.0
 37
0.0
 76
     0
330
1F
  0
MLINESTYLE
  5
18
102
{ACAD_REACTORS
330
17
102
}
330
17
100
AcDbMlineStyle
  2
STANDARD
 70
     0
  3

 62
   256
 51
90.0
 52
90.0
 71
     2
 49
0.5
 62
   256
  6
BYLAYER
 49
-0.5
 62
   256
  6
BYLAYER
  0
ACDBPLACEHOLDER
  5
F
102
{ACAD_REACTORS
330
E
102
}
330
E
  0
ENDSEC
  0
EOF
