  0
SECTION
  2
HEADER
  9
$ACADVER
  1
AC1015
  9
$ACADMAINTVER
 70
     6
  9
$DWGCODEPAGE
  3
ANSI_1252
  9
$INSBASE
 10
0.0
 20
0.0
 30
0.0
  9
$EXTMIN
 10
-10.0
 20
-160.0000000000011
 30
0.0
  9
$EXTMAX
 10
1862.290525843252
 20
1219.999999999998
 30
0.0
  9
$LIMMIN
 10
0.0
 20
0.0
  9
$LIMMAX
 10
2970.0
 20
2100.0
  9
$ORTHOMODE
 70
     0
  9
$REGENMODE
 70
     1
  9
$FILLMODE
 70
     1
  9
$QTEXTMODE
 70
     0
  9
$MIRRTEXT
 70
     1
  9
$LTSCALE
 40
1.0
  9
$ATTMODE
 70
     1
  9
$TEXTSIZE
 40
2.5
  9
$TRACEWID
 40
1.0
  9
$TEXTSTYLE
  7
Standard
  9
$CLAYER
  8
cotes
  9
$CELTYPE
  6
ByLayer
  9
$CECOLOR
 62
   256
  9
$CELTSCALE
 40
1.0
  9
$DISPSILH
 70
     0
  9
$DIMSCALE
 40
1.0
  9
$DIMASZ
 40
2.5
  9
$DIMEXO
 40
0.625
  9
$DIMDLI
 40
3.75
  9
$DIMRND
 40
0.0
  9
$DIMDLE
 40
0.0
  9
$DIMEXE
 40
1.25
  9
$DIMTP
 40
0.0
  9
$DIMTM
 40
0.0
  9
$DIMTXT
 40
2.5
  9
$DIMCEN
 40
2.5
  9
$DIMTSZ
 40
0.0
  9
$DIMTOL
 70
     0
  9
$DIMLIM
 70
     0
  9
$DIMTIH
 70
     0
  9
$DIMTOH
 70
     0
  9
$DIMSE1
 70
     0
  9
$DIMSE2
 70
     0
  9
$DIMTAD
 70
     1
  9
$DIMZIN
 70
     8
  9
$DIMBLK
  1

  9
$DIMASO
 70
     1
  9
$DIMSHO
 70
     1
  9
$DIMPOST
  1

  9
$DIMAPOST
  1

  9
$DIMALT
 70
     0
  9
$DIMALTD
 70
     3
  9
$DIMALTF
 40
0.03937007874016
  9
$DIMLFAC
 40
1.0
  9
$DIMTOFL
 70
     1
  9
$DIMTVP
 40
0.0
  9
$DIMTIX
 70
     0
  9
$DIMSOXD
 70
     0
  9
$DIMSAH
 70
     0
  9
$DIMBLK1
  1

  9
$DIMBLK2
  1

  9
$DIMSTYLE
  2
ISO-25
  9
$DIMCLRD
 70
     0
  9
$DIMCLRE
 70
     0
  9
$DIMCLRT
 70
     0
  9
$DIMTFAC
 40
1.0
  9
$DIMGAP
 40
0.625
  9
$DIMJUST
 70
     0
  9
$DIMSD1
 70
     0
  9
$DIMSD2
 70
     0
  9
$DIMTOLJ
 70
     0
  9
$DIMTZIN
 70
     8
  9
$DIMALTZ
 70
     0
  9
$DIMALTTZ
 70
     0
  9
$DIMUPT
 70
     0
  9
$DIMDEC
 70
     2
  9
$DIMTDEC
 70
     2
  9
$DIMALTU
 70
     2
  9
$DIMALTTD
 70
     3
  9
$DIMTXSTY
  7
Standard
  9
$DIMAUNIT
 70
     0
  9
$DIMADEC
 70
     0
  9
$DIMALTRND
 40
0.0
  9
$DIMAZIN
 70
     0
  9
$DIMDSEP
 70
    44
  9
$DIMATFIT
 70
     3
  9
$DIMFRAC
 70
     0
  9
$DIMLDRBLK
  1

  9
$DIMLUNIT
 70
     2
  9
$DIMLWD
 70
    -2
  9
$DIMLWE
 70
    -2
  9
$DIMTMOVE
 70
     0
  9
$LUNITS
 70
     2
  9
$LUPREC
 70
     1
  9
$SKETCHINC
 40
1.0
  9
$FILLETRAD
 40
150.0
  9
$AUNITS
 70
     0
  9
$AUPREC
 70
     1
  9
$MENU
  1
.
  9
$ELEVATION
 40
0.0
  9
$PELEVATION
 40
0.0
  9
$THICKNESS
 40
0.0
  9
$LIMCHECK
 70
     0
  9
$CHAMFERA
 40
10.0
  9
$CHAMFERB
 40
10.0
  9
$CHAMFERC
 40
20.0
  9
$CHAMFERD
 40
0.0
  9
$SKPOLY
 70
     0
  9
$TDCREATE
 40
2453261.787012975
  9
$TDUCREATE
 40
2453261.745346307
  9
$TDUPDATE
 40
2455252.957852361
  9
$TDUUPDATE
 40
2455252.916185694
  9
$TDINDWG
 40
13.2138706134
  9
$TDUSRTIMER
 40
13.2138704398
  9
$USRTIMER
 70
     1
  9
$ANGBASE
 50
0.0
  9
$ANGDIR
 70
     0
  9
$PDMODE
 70
     0
  9
$PDSIZE
 40
0.0
  9
$PLINEWID
 40
0.0
  9
$SPLFRAME
 70
     0
  9
$SPLINETYPE
 70
     6
  9
$SPLINESEGS
 70
     8
  9
$HANDSEED
  5
2725
  9
$SURFTAB1
 70
     6
  9
$SURFTAB2
 70
     6
  9
$SURFTYPE
 70
     6
  9
$SURFU
 70
     6
  9
$SURFV
 70
     6
  9
$UCSBASE
  2

  9
$UCSNAME
  2

  9
$UCSORG
 10
0.0
 20
0.0
 30
0.0
  9
$UCSXDIR
 10
1.0
 20
0.0
 30
0.0
  9
$UCSYDIR
 10
0.0
 20
1.0
 30
0.0
  9
$UCSORTHOREF
  2

  9
$UCSORTHOVIEW
 70
     0
  9
$UCSORGTOP
 10
0.0
 20
0.0
 30
0.0
  9
$UCSORGBOTTOM
 10
0.0
 20
0.0
 30
0.0
  9
$UCSORGLEFT
 10
0.0
 20
0.0
 30
0.0
  9
$UCSORGRIGHT
 10
0.0
 20
0.0
 30
0.0
  9
$UCSORGFRONT
 10
0.0
 20
0.0
 30
0.0
  9
$UCSORGBACK
 10
0.0
 20
0.0
 30
0.0
  9
$PUCSBASE
  2

  9
$PUCSNAME
  2

  9
$PUCSORG
 10
0.0
 20
0.0
 30
0.0
  9
$PUCSXDIR
 10
1.0
 20
0.0
 30
0.0
  9
$PUCSYDIR
 10
0.0
 20
1.0
 30
0.0
  9
$PUCSORTHOREF
  2

  9
$PUCSORTHOVIEW
 70
     0
  9
$PUCSORGTOP
 10
0.0
 20
0.0
 30
0.0
  9
$PUCSORGBOTTOM
 10
0.0
 20
0.0
 30
0.0
  9
$PUCSORGLEFT
 10
0.0
 20
0.0
 30
0.0
  9
$PUCSORGRIGHT
 10
0.0
 20
0.0
 30
0.0
  9
$PUCSORGFRONT
 10
0.0
 20
0.0
 30
0.0
  9
$PUCSORGBACK
 10
0.0
 20
0.0
 30
0.0
  9
$USERI1
 70
     0
  9
$USERI2
 70
     0
  9
$USERI3
 70
     0
  9
$USERI4
 70
     0
  9
$USERI5
 70
     0
  9
$USERR1
 40
0.0
  9
$USERR2
 40
0.0
  9
$USERR3
 40
0.0
  9
$USERR4
 40
0.0
  9
$USERR5
 40
0.0
  9
$WORLDVIEW
 70
     1
  9
$SHADEDGE
 70
     3
  9
$SHADEDIF
 70
    70
  9
$TILEMODE
 70
     1
  9
$MAXACTVP
 70
    64
  9
$PINSBASE
 10
0.0
 20
0.0
 30
0.0
  9
$PLIMCHECK
 70
     0
  9
$PEXTMIN
 10
28.68718404769896
 20
19.63631558418273
 30
0.0
  9
$PEXTMAX
 10
258.1846564292908
 20
176.7268402576446
 30
0.0
  9
$PLIMMIN
 10
-5.027069091796875
 20
-6.720416545867919
  9
$PLIMMAX
 10
291.89892578125
 20
203.2529110908508
  9
$UNITMODE
 70
     0
  9
$VISRETAIN
 70
     1
  9
$PLINEGEN
 70
     0
  9
$PSLTSCALE
 70
     1
  9
$TREEDEPTH
 70
  3020
  9
$CMLSTYLE
  2
Standard
  9
$CMLJUST
 70
     0
  9
$CMLSCALE
 40
20.0
  9
$PROXYGRAPHICS
 70
     1
  9
$MEASUREMENT
 70
     1
  9
$CELWEIGHT
370
    -1
  9
$ENDCAPS
280
     0
  9
$JOINSTYLE
280
     0
  9
$LWDISPLAY
290
     0
  9
$INSUNITS
 70
     4
  9
$HYPERLINKBASE
  1

  9
$STYLESHEET
  1
Screening 100%.ctb
  9
$XEDIT
290
     1
  9
$CEPSNTYPE
380
     0
  9
$PSTYLEMODE
290
     1
  9
$FINGERPRINTGUID
  2
{C3F1072E-DDD5-4B49-8146-17C129DB925F}
  9
$VERSIONGUID
  2
{C9CD170A-155E-490B-BF40-B5D8995418F8}
  9
$EXTNAMES
290
     1
  9
$PSVPSCALE
 40
0.0
  9
$OLESTARTUP
290
     0
  0
ENDSEC
  0
SECTION
  2
CLASSES
  0
CLASS
  1
ACDBDICTIONARYWDFLT
  2
AcDbDictionaryWithDefault
  3
AutoCAD 2000
 90
        0
280
     0
281
     0
  0
CLASS
  1
ACDBPLACEHOLDER
  2
AcDbPlaceHolder
  3
AutoCAD 2000
 90
        0
280
     0
281
     0
  0
CLASS
  1
LAYOUT
  2
AcDbLayout
  3
AutoCAD 2000
 90
        0
280
     0
281
     0
  0
CLASS
  1
DICTIONARYVAR
  2
AcDbDictionaryVar
  3
AutoCAD 2000
 90
    32768
280
     0
281
     0
  0
ENDSEC
  0
SECTION
  2
TABLES
  0
TABLE
  2
VPORT
  5
8
330
0
100
AcDbSymbolTable
 70
     2
  0
VPORT
  5
2724
330
8
100
AcDbSymbolTableRecord
100
AcDbViewportTableRecord
  2
*Active
 70
     0
 10
0.0
 20
0.0
 11
1.0
 21
1.0
 12
1125.774464508085
 22
775.5152325988881
 13
0.0
 23
0.0
 14
10.0
 24
10.0
 15
10.0
 25
10.0
 16
0.0
 26
0.0
 36
1.0
 17
0.0
 27
0.0
 37
0.0
 40
1987.258137005622
 41
1.64931506849315
 42
50.0
 43
0.0
 44
0.0
 50
0.0
 51
0.0
 71
     0
 72
   100
 73
     1
 74
     3
 75
     0
 76
     0
 77
     0
 78
     0
281
     0
 65
     1
110
0.0
120
0.0
130
0.0
111
1.0
121
0.0
131
0.0
112
0.0
122
1.0
132
0.0
 79
     0
146
0.0
  0
ENDTAB
  0
TABLE
  2
LTYPE
  5
5
330
0
100
AcDbSymbolTable
 70
     1
  0
LTYPE
  5
14
330
5
100
AcDbSymbolTableRecord
100
AcDbLinetypeTableRecord
  2
ByBlock
 70
     0
  3

 72
    65
 73
     0
 40
0.0
  0
LTYPE
  5
15
330
5
100
AcDbSymbolTableRecord
100
AcDbLinetypeTableRecord
  2
ByLayer
 70
     0
  3

 72
    65
 73
     0
 40
0.0
  0
LTYPE
  5
16
330
5
100
AcDbSymbolTableRecord
100
AcDbLinetypeTableRecord
  2
Continuous
 70
     0
  3
Solid line
 72
    65
 73
     0
 40
0.0
  0
ENDTAB
  0
TABLE
  2
LAYER
  5
2
330
0
100
AcDbSymbolTable
 70
     9
  0
LAYER
  5
10
330
2
100
AcDbSymbolTableRecord
100
AcDbLayerTableRecord
  2
0
 70
     0
 62
    -7
  6
Continuous
290
     0
370
    -3
390
F
  0
LAYER
  5
2E
330
2
100
AcDbSymbolTableRecord
100
AcDbLayerTableRecord
  2
roues
 70
     0
 62
     1
  6
Continuous
370
    20
390
F
  0
LAYER
  5
3E
330
2
100
AcDbSymbolTableRecord
100
AcDbLayerTableRecord
  2
Defpoints
 70
     0
 62
    -7
  6
Continuous
290
     0
370
    -3
390
F
  0
LAYER
  5
B4
330
2
100
AcDbSymbolTableRecord
100
AcDbLayerTableRecord
  2
cadre
 70
     0
 62
     4
  6
Continuous
370
    20
390
F
  0
LAYER
  5
DD
330
2
100
AcDbSymbolTableRecord
100
AcDbLayerTableRecord
  2
Transmission
 70
     0
 62
     6
  6
Continuous
370
    20
390
F
  0
LAYER
  5
120
330
2
100
AcDbSymbolTableRecord
100
AcDbLayerTableRecord
  2
cotes
 70
     0
 62
     3
  6
Continuous
370
    20
390
F
  0
LAYER
  5
DC8
330
2
100
AcDbSymbolTableRecord
100
AcDbLayerTableRecord
  2
direction
 70
     0
 62
     2
  6
Continuous
370
    20
390
F
  0
LAYER
  5
1A7B
330
2
100
AcDbSymbolTableRecord
100
AcDbLayerTableRecord
  2
s
 70
     0
 62
     5
  6
Continuous
370
    20
390
F
  0
LAYER
  5
2693
330
2
100
AcDbSymbolTableRecord
100
AcDbLayerTableRecord
  2
Potence
 70
     0
 62
     6
  6
Continuous
370
    20
390
F
  0
ENDTAB
  0
TABLE
  2
STYLE
  5
3
330
0
100
AcDbSymbolTable
 70
     1
  0
STYLE
  5
11
330
3
100
AcDbSymbolTableRecord
100
AcDbTextStyleTableRecord
  2
Standard
 70
     0
 40
0.0
 41
1.0
 50
0.0
 71
     0
 42
2.5
  3
txt
  4

  0
ENDTAB
  0
TABLE
  2
VIEW
  5
6
330
0
100
AcDbSymbolTable
 70
     0
  0
ENDTAB
  0
TABLE
  2
UCS
  5
7
330
0
100
AcDbSymbolTable
 70
     0
  0
ENDTAB
  0
TABLE
  2
APPID
  5
9
330
0
100
AcDbSymbolTable
 70
     1
  0
APPID
  5
12
330
9
100
AcDbSymbolTableRecord
100
AcDbRegAppTableRecord
  2
ACAD
 70
     0
  0
ENDTAB
  0
TABLE
  2
DIMSTYLE
  5
A
330
0
100
AcDbSymbolTable
 70
     1
100
AcDbDimStyleTable
 71
     1
340
27
  0
DIMSTYLE
105
27
102
{ACAD_REACTORS
330
1B22
330
1C6F
330
1E6E
330
1F35
330
1F46
330
2061
330
2075
330
2082
330
2092
330
20A1
330
20AE
330
20BC
330
20C9
330
2137
330
2144
330
2181
330
218E
330
219B
330
21B1
330
21DD
330
21FC
330
2212
330
2221
330
224A
330
225B
330
2268
330
2275
330
2297
330
22A4
330
22B1
330
22BF
330
22D0
330
22EB
330
22F8
330
2317
330
233A
330
2358
330
238C
330
23BD
330
23CA
330
23DD
330
23EA
330
23FB
330
2411
330
241E
330
242B
330
243A
330
2447
330
2454
330
24AC
330
24B9
330
24DB
330
24F1
330
24FE
330
2531
330
25AA
330
25C4
330
25DF
330
25EC
330
2610
330
2626
330
2660
330
2676
330
26C6
330
2705
330
2712
102
}
330
A
100
AcDbSymbolTableRecord
100
AcDbDimStyleTableRecord
  2
ISO-25
 70
     0
 41
2.5
 42
0.625
 43
3.75
 44
1.25
 73
     0
 74
     0
 77
     1
 78
     8
140
2.5
141
2.5
143
0.03937007874016
147
0.625
171
     3
172
     1
271
     2
272
     2
274
     3
278
    44
283
     0
284
     8
340
11
  0
ENDTAB
  0
TABLE
  2
BLOCK_RECORD
  5
1
330
0
100
AcDbSymbolTable
 70
    70
  0
BLOCK_RECORD
  5
1F
330
1
100
AcDbSymbolTableRecord
100
AcDbBlockTableRecord
  2
*Model_Space
340
22
  0
BLOCK_RECORD
  5
1B
330
1
100
AcDbSymbolTableRecord
100
AcDbBlockTableRecord
  2
*Paper_Space
340
1E
  0
BLOCK_RECORD
  5
23
330
1
100
AcDbSymbolTableRecord
100
AcDbBlockTableRecord
  2
*Paper_Space0
340
26
  0
BLOCK_RECORD
  5
1B23
330
1
100
AcDbSymbolTableRecord
100
AcDbBlockTableRecord
  2
*D1
340
0
  0
BLOCK_RECORD
  5
1C70
330
1
100
AcDbSymbolTableRecord
100
AcDbBlockTableRecord
  2
*D2
340
0
  0
BLOCK_RECORD
  5
1E6F
330
1
100
AcDbSymbolTableRecord
100
AcDbBlockTableRecord
  2
*D3
340
0
  0
BLOCK_RECORD
  5
1F36
330
1
100
AcDbSymbolTableRecord
100
AcDbBlockTableRecord
  2
*D4
340
0
  0
BLOCK_RECORD
  5
1F47
330
1
100
AcDbSymbolTableRecord
100
AcDbBlockTableRecord
  2
*D5
340
0
  0
BLOCK_RECORD
  5
2062
330
1
100
AcDbSymbolTableRecord
100
AcDbBlockTableRecord
  2
*D6
340
0
  0
BLOCK_RECORD
  5
2076
330
1
100
AcDbSymbolTableRecord
100
AcDbBlockTableRecord
  2
*D7
340
0
  0
BLOCK_RECORD
  5
2083
330
1
100
AcDbSymbolTableRecord
100
AcDbBlockTableRecord
  2
*D8
340
0
  0
BLOCK_RECORD
  5
2093
330
1
100
AcDbSymbolTableRecord
100
AcDbBlockTableRecord
  2
*D9
340
0
  0
BLOCK_RECORD
  5
20A2
330
1
100
AcDbSymbolTableRecord
100
AcDbBlockTableRecord
  2
*D10
340
0
  0
BLOCK_RECORD
  5
20AF
330
1
100
AcDbSymbolTableRecord
100
AcDbBlockTableRecord
  2
*D11
340
0
  0
BLOCK_RECORD
  5
20BD
330
1
100
AcDbSymbolTableRecord
100
AcDbBlockTableRecord
  2
*D12
340
0
  0
BLOCK_RECORD
  5
20CA
330
1
100
AcDbSymbolTableRecord
100
AcDbBlockTableRecord
  2
*D13
340
0
  0
BLOCK_RECORD
  5
2138
330
1
100
AcDbSymbolTableRecord
100
AcDbBlockTableRecord
  2
*D14
340
0
  0
BLOCK_RECORD
  5
2145
330
1
100
AcDbSymbolTableRecord
100
AcDbBlockTableRecord
  2
*D15
340
0
  0
BLOCK_RECORD
  5
2182
330
1
100
AcDbSymbolTableRecord
100
AcDbBlockTableRecord
  2
*D16
340
0
  0
BLOCK_RECORD
  5
218F
330
1
100
AcDbSymbolTableRecord
100
AcDbBlockTableRecord
  2
*D17
340
0
  0
BLOCK_RECORD
  5
219C
330
1
100
AcDbSymbolTableRecord
100
AcDbBlockTableRecord
  2
*D18
340
0
  0
BLOCK_RECORD
  5
21B2
330
1
100
AcDbSymbolTableRecord
100
AcDbBlockTableRecord
  2
*D19
340
0
  0
BLOCK_RECORD
  5
21DE
330
1
100
AcDbSymbolTableRecord
100
AcDbBlockTableRecord
  2
*D20
340
0
  0
BLOCK_RECORD
  5
21FD
330
1
100
AcDbSymbolTableRecord
100
AcDbBlockTableRecord
  2
*D21
340
0
  0
BLOCK_RECORD
  5
2213
330
1
100
AcDbSymbolTableRecord
100
AcDbBlockTableRecord
  2
*D22
340
0
  0
BLOCK_RECORD
  5
2222
330
1
100
AcDbSymbolTableRecord
100
AcDbBlockTableRecord
  2
*D23
340
0
  0
BLOCK_RECORD
  5
224B
330
1
100
AcDbSymbolTableRecord
100
AcDbBlockTableRecord
  2
*D24
340
0
  0
BLOCK_RECORD
  5
225C
330
1
100
AcDbSymbolTableRecord
100
AcDbBlockTableRecord
  2
*D25
340
0
  0
BLOCK_RECORD
  5
2269
330
1
100
AcDbSymbolTableRecord
100
AcDbBlockTableRecord
  2
*D26
340
0
  0
BLOCK_RECORD
  5
2276
330
1
100
AcDbSymbolTableRecord
100
AcDbBlockTableRecord
  2
*D27
340
0
  0
BLOCK_RECORD
  5
2298
330
1
100
AcDbSymbolTableRecord
100
AcDbBlockTableRecord
  2
*D28
340
0
  0
BLOCK_RECORD
  5
22A5
330
1
100
AcDbSymbolTableRecord
100
AcDbBlockTableRecord
  2
*D29
340
0
  0
BLOCK_RECORD
  5
22B2
330
1
100
AcDbSymbolTableRecord
100
AcDbBlockTableRecord
  2
*D30
340
0
  0
BLOCK_RECORD
  5
22C0
330
1
100
AcDbSymbolTableRecord
100
AcDbBlockTableRecord
  2
*D31
340
0
  0
BLOCK_RECORD
  5
22D1
330
1
100
AcDbSymbolTableRecord
100
AcDbBlockTableRecord
  2
*D32
340
0
  0
BLOCK_RECORD
  5
22EC
330
1
100
AcDbSymbolTableRecord
100
AcDbBlockTableRecord
  2
*D33
340
0
  0
BLOCK_RECORD
  5
22F9
330
1
100
AcDbSymbolTableRecord
100
AcDbBlockTableRecord
  2
*D34
340
0
  0
BLOCK_RECORD
  5
2318
330
1
100
AcDbSymbolTableRecord
100
AcDbBlockTableRecord
  2
*D35
340
0
  0
BLOCK_RECORD
  5
233B
330
1
100
AcDbSymbolTableRecord
100
AcDbBlockTableRecord
  2
*D36
340
0
  0
BLOCK_RECORD
  5
2359
330
1
100
AcDbSymbolTableRecord
100
AcDbBlockTableRecord
  2
*D37
340
0
  0
BLOCK_RECORD
  5
238D
330
1
100
AcDbSymbolTableRecord
100
AcDbBlockTableRecord
  2
*D38
340
0
  0
BLOCK_RECORD
  5
23BE
330
1
100
AcDbSymbolTableRecord
100
AcDbBlockTableRecord
  2
*D39
340
0
  0
BLOCK_RECORD
  5
23CB
330
1
100
AcDbSymbolTableRecord
100
AcDbBlockTableRecord
  2
*D40
340
0
  0
BLOCK_RECORD
  5
23DE
330
1
100
AcDbSymbolTableRecord
100
AcDbBlockTableRecord
  2
*D41
340
0
  0
BLOCK_RECORD
  5
23EB
330
1
100
AcDbSymbolTableRecord
100
AcDbBlockTableRecord
  2
*D42
340
0
  0
BLOCK_RECORD
  5
23FC
330
1
100
AcDbSymbolTableRecord
100
AcDbBlockTableRecord
  2
*D43
340
0
  0
BLOCK_RECORD
  5
2412
330
1
100
AcDbSymbolTableRecord
100
AcDbBlockTableRecord
  2
*D44
340
0
  0
BLOCK_RECORD
  5
241F
330
1
100
AcDbSymbolTableRecord
100
AcDbBlockTableRecord
  2
*D45
340
0
  0
BLOCK_RECORD
  5
242C
330
1
100
AcDbSymbolTableRecord
100
AcDbBlockTableRecord
  2
*D46
340
0
  0
BLOCK_RECORD
  5
243B
330
1
100
AcDbSymbolTableRecord
100
AcDbBlockTableRecord
  2
*D47
340
0
  0
BLOCK_RECORD
  5
2448
330
1
100
AcDbSymbolTableRecord
100
AcDbBlockTableRecord
  2
*D48
340
0
  0
BLOCK_RECORD
  5
2455
330
1
100
AcDbSymbolTableRecord
100
AcDbBlockTableRecord
  2
*D49
340
0
  0
BLOCK_RECORD
  5
24AD
330
1
100
AcDbSymbolTableRecord
100
AcDbBlockTableRecord
  2
*D50
340
0
  0
BLOCK_RECORD
  5
24BA
330
1
100
AcDbSymbolTableRecord
100
AcDbBlockTableRecord
  2
*D51
340
0
  0
BLOCK_RECORD
  5
24DC
330
1
100
AcDbSymbolTableRecord
100
AcDbBlockTableRecord
  2
*D52
340
0
  0
BLOCK_RECORD
  5
24F2
330
1
100
AcDbSymbolTableRecord
100
AcDbBlockTableRecord
  2
*D53
340
0
  0
BLOCK_RECORD
  5
24FF
330
1
100
AcDbSymbolTableRecord
100
AcDbBlockTableRecord
  2
*D54
340
0
  0
BLOCK_RECORD
  5
2532
330
1
100
AcDbSymbolTableRecord
100
AcDbBlockTableRecord
  2
*D55
340
0
  0
BLOCK_RECORD
  5
25AB
330
1
100
AcDbSymbolTableRecord
100
AcDbBlockTableRecord
  2
*D56
340
0
  0
BLOCK_RECORD
  5
25C5
330
1
100
AcDbSymbolTableRecord
100
AcDbBlockTableRecord
  2
*D57
340
0
  0
BLOCK_RECORD
  5
25E0
330
1
100
AcDbSymbolTableRecord
100
AcDbBlockTableRecord
  2
*D58
340
0
  0
BLOCK_RECORD
  5
25ED
330
1
100
AcDbSymbolTableRecord
100
AcDbBlockTableRecord
  2
*D59
340
0
  0
BLOCK_RECORD
  5
2611
330
1
100
AcDbSymbolTableRecord
100
AcDbBlockTableRecord
  2
*D60
340
0
  0
BLOCK_RECORD
  5
2627
330
1
100
AcDbSymbolTableRecord
100
AcDbBlockTableRecord
  2
*D61
340
0
  0
BLOCK_RECORD
  5
2661
330
1
100
AcDbSymbolTableRecord
100
AcDbBlockTableRecord
  2
*D62
340
0
  0
BLOCK_RECORD
  5
2677
330
1
100
AcDbSymbolTableRecord
100
AcDbBlockTableRecord
  2
*D63
340
0
  0
BLOCK_RECORD
  5
26C7
330
1
100
AcDbSymbolTableRecord
100
AcDbBlockTableRecord
  2
*D65
340
0
  0
BLOCK_RECORD
  5
2706
330
1
100
AcDbSymbolTableRecord
100
AcDbBlockTableRecord
  2
*D68
340
0
  0
BLOCK_RECORD
  5
2713
330
1
100
AcDbSymbolTableRecord
100
AcDbBlockTableRecord
  2
*D69
340
0
  0
ENDTAB
  0
ENDSEC
  0
SECTION
  2
BLOCKS
  0
BLOCK
  5
20
330
1F
100
AcDbEntity
  8
0
100
AcDbBlockBegin
  2
*Model_Space
 70
     0
 10
0.0
 20
0.0
 30
0.0
  3
*Model_Space
  1

  0
ENDBLK
  5
21
330
1F
100
AcDbEntity
  8
0
100
AcDbBlockEnd
  0
BLOCK
  5
1C
330
1B
100
AcDbEntity
 67
     1
  8
0
100
AcDbBlockBegin
  2
*Paper_Space
 70
     0
 10
0.0
 20
0.0
 30
0.0
  3
*Paper_Space
  1

  0
ENDBLK
  5
1D
330
1B
100
AcDbEntity
 67
     1
  8
0
100
AcDbBlockEnd
  0
BLOCK
  5
24
330
23
100
AcDbEntity
  8
0
100
AcDbBlockBegin
  2
*Paper_Space0
 70
     0
 10
0.0
 20
0.0
 30
0.0
  3
*Paper_Space0
  1

  0
ENDBLK
  5
25
330
23
100
AcDbEntity
  8
0
100
AcDbBlockEnd
  0
BLOCK
  5
1B2D
330
1B23
100
AcDbEntity
  8
0
100
AcDbBlockBegin
  2
*D1
 70
     1
 10
0.0
 20
0.0
 30
0.0
  3
*D1
  1

  0
LINE
  5
1F71
330
1B23
100
AcDbEntity
  8
cotes
 62
     0
370
    -2
100
AcDbLine
 10
1500.0
 20
105.125
 30
0.0
 11
1500.0
 21
13.00148209933013
 31
0.0
  0
LINE
  5
1F72
330
1B23
100
AcDbEntity
  8
cotes
 62
     0
370
    -2
100
AcDbLine
 10
300.0
 20
99.375
 30
0.0
 11
300.0
 21
13.00148209933013
 31
0.0
  0
LINE
  5
1F73
330
1B23
100
AcDbEntity
  8
cotes
 62
     0
370
    -2
100
AcDbLine
 10
1497.5
 20
14.25148209933013
 30
0.0
 11
302.4999999999999
 21
14.25148209933013
 31
0.0
  0
SOLID
  5
1F74
330
1B23
100
AcDbEntity
  8
cotes
 62
     0
100
AcDbTrace
 10
1497.5
 20
14.6681487659968
 30
0.0
 11
1497.5
 21
13.83481543266346
 31
0.0
 12
1500.0
 22
14.25148209933013
 32
0.0
 13
1500.0
 23
14.25148209933013
 33
0.0
  0
SOLID
  5
1F75
330
1B23
100
AcDbEntity
  8
cotes
 62
     0
100
AcDbTrace
 10
302.4999999999999
 20
14.6681487659968
 30
0.0
 11
302.4999999999999
 21
13.83481543266346
 31
0.0
 12
300.0
 22
14.25148209933013
 32
0.0
 13
300.0
 23
14.25148209933013
 33
0.0
  0
MTEXT
  5
1F76
330
1B23
100
AcDbEntity
  8
cotes
 62
     0
100
AcDbMText
 10
900.0
 20
19.87648209933013
 30
0.0
 40
10.0
 41
0.0
 71
     5
 72
     1
  1
1200
 73
     1
 44
1.0
  0
POINT
  5
1F77
330
1B23
100
AcDbEntity
  8
Defpoints
 62
     0
100
AcDbPoint
 10
1500.0
 20
105.75
 30
0.0
  0
POINT
  5
1F78
330
1B23
100
AcDbEntity
  8
Defpoints
 62
     0
100
AcDbPoint
 10
300.0
 20
100.0
 30
0.0
  0
POINT
  5
1F79
330
1B23
100
AcDbEntity
  8
Defpoints
 62
     0
100
AcDbPoint
 10
300.0
 20
14.25148209933013
 30
0.0
  0
ENDBLK
  5
1B2E
330
1B23
100
AcDbEntity
  8
0
100
AcDbBlockEnd
  0
BLOCK
  5
1C7A
330
1C70
100
AcDbEntity
  8
0
100
AcDbBlockBegin
  2
*D2
 70
     1
 10
0.0
 20
0.0
 30
0.0
  3
*D2
  1

  0
LINE
  5
258B
330
1C70
100
AcDbEntity
  8
cotes
 62
     0
370
    -2
100
AcDbLine
 10
1512.290525843252
 20
115.4122806643348
 30
0.0
 11
1512.290525843252
 21
30.36445737173244
 31
0.0
  0
LINE
  5
258C
330
1C70
100
AcDbEntity
  8
cotes
 62
     0
370
    -2
100
AcDbLine
 10
1637.796768531154
 20
115.4122806643348
 30
0.0
 11
1637.796768531154
 21
30.36445737173244
 31
0.0
  0
LINE
  5
258D
330
1C70
100
AcDbEntity
  8
cotes
 62
     0
370
    -2
100
AcDbLine
 10
1514.790525843252
 20
31.61445737173244
 30
0.0
 11
1635.296768531153
 21
31.61445737173244
 31
0.0
  0
SOLID
  5
258E
330
1C70
100
AcDbEntity
  8
cotes
 62
     0
100
AcDbTrace
 10
1514.790525843252
 20
32.0311240383991
 30
0.0
 11
1514.790525843252
 21
31.19779070506577
 31
0.0
 12
1512.290525843252
 22
31.61445737173244
 32
0.0
 13
1512.290525843252
 23
31.61445737173244
 33
0.0
  0
SOLID
  5
258F
330
1C70
100
AcDbEntity
  8
cotes
 62
     0
100
AcDbTrace
 10
1635.296768531153
 20
32.0311240383991
 30
0.0
 11
1635.296768531153
 21
31.19779070506577
 31
0.0
 12
1637.796768531154
 22
31.61445737173244
 32
0.0
 13
1637.796768531154
 23
31.61445737173244
 33
0.0
  0
MTEXT
  5
2590
330
1C70
100
AcDbEntity
  8
cotes
 62
     0
100
AcDbMText
 10
1575.043647187203
 20
38.07279070506577
 30
0.0
 40
10.0
 41
0.0
 71
     5
 72
     1
  1
125,51
 73
     1
 44
1.0
  0
POINT
  5
2591
330
1C70
100
AcDbEntity
  8
Defpoints
 62
     0
100
AcDbPoint
 10
1512.290525843252
 20
116.0372806643348
 30
0.0
  0
POINT
  5
2592
330
1C70
100
AcDbEntity
  8
Defpoints
 62
     0
100
AcDbPoint
 10
1637.796768531154
 20
116.0372806643348
 30
0.0
  0
POINT
  5
2593
330
1C70
100
AcDbEntity
  8
Defpoints
 62
     0
100
AcDbPoint
 10
1637.796768531154
 20
31.61445737173244
 30
0.0
  0
ENDBLK
  5
1C7B
330
1C70
100
AcDbEntity
  8
0
100
AcDbBlockEnd
  0
BLOCK
  5
1E79
330
1E6F
100
AcDbEntity
  8
0
100
AcDbBlockBegin
  2
*D3
 70
     1
 10
0.0
 20
0.0
 30
0.0
  3
*D3
  1

  0
LINE
  5
2057
330
1E6F
100
AcDbEntity
  8
cotes
 62
     0
370
    -2
100
AcDbLine
 10
1671.403993828548
 20
729.9999999999998
 30
0.0
 11
1813.450506471613
 21
729.9999999999997
 31
0.0
  0
LINE
  5
2058
330
1E6F
100
AcDbEntity
  8
cotes
 62
     0
370
    -2
100
AcDbLine
 10
1708.375882882608
 20
100.0
 30
0.0
 11
1813.450506471613
 21
100.0
 31
0.0
  0
LINE
  5
2059
330
1E6F
100
AcDbEntity
  8
cotes
 62
     0
370
    -2
100
AcDbLine
 10
1812.200506471613
 20
727.4999999999996
 30
0.0
 11
1812.200506471613
 21
102.4999999999999
 31
0.0
  0
SOLID
  5
205A
330
1E6F
100
AcDbEntity
  8
cotes
 62
     0
100
AcDbTrace
 10
1811.783839804946
 20
727.4999999999996
 30
0.0
 11
1812.61717313828
 21
727.4999999999996
 31
0.0
 12
1812.200506471613
 22
729.9999999999997
 32
0.0
 13
1812.200506471613
 23
729.9999999999997
 33
0.0
  0
SOLID
  5
205B
330
1E6F
100
AcDbEntity
  8
cotes
 62
     0
100
AcDbTrace
 10
1811.783839804946
 20
102.4999999999999
 30
0.0
 11
1812.61717313828
 21
102.4999999999999
 31
0.0
 12
1812.200506471613
 22
100.0
 32
0.0
 13
1812.200506471613
 23
100.0
 33
0.0
  0
MTEXT
  5
205C
330
1E6F
100
AcDbEntity
  8
cotes
 62
     0
100
AcDbMText
 10
1806.575506471613
 20
415.0000000000001
 30
0.0
 40
10.0
 41
0.0
 71
     5
 72
     1
  1
630
 11
0.0000000000000001
 21
1.0
 31
0.0
 73
     1
 44
1.0
  0
POINT
  5
205D
330
1E6F
100
AcDbEntity
  8
Defpoints
 62
     0
100
AcDbPoint
 10
1670.778993828548
 20
729.9999999999998
 30
0.0
  0
POINT
  5
205E
330
1E6F
100
AcDbEntity
  8
Defpoints
 62
     0
100
AcDbPoint
 10
1707.750882882609
 20
100.0
 30
0.0
  0
POINT
  5
205F
330
1E6F
100
AcDbEntity
  8
Defpoints
 62
     0
100
AcDbPoint
 10
1812.200506471613
 20
100.0
 30
0.0
  0
ENDBLK
  5
1E7A
330
1E6F
100
AcDbEntity
  8
0
100
AcDbBlockEnd
  0
BLOCK
  5
1F40
330
1F36
100
AcDbEntity
  8
0
100
AcDbBlockBegin
  2
*D4
 70
     1
 10
0.0
 20
0.0
 30
0.0
  3
*D4
  1

  0
LINE
  5
1F7A
330
1F36
100
AcDbEntity
  8
cotes
 62
     0
370
    -2
100
AcDbLine
 10
1005.040985835376
 20
529.9999999999998
 30
0.0
 11
1082.29038778364
 21
529.9999999999998
 31
0.0
  0
LINE
  5
1F7B
330
1F36
100
AcDbEntity
  8
cotes
 62
     0
370
    -2
100
AcDbLine
 10
1005.040985835376
 20
100.0
 30
0.0
 11
1082.29038778364
 21
100.0
 31
0.0
  0
LINE
  5
1F7C
330
1F36
100
AcDbEntity
  8
cotes
 62
     0
370
    -2
100
AcDbLine
 10
1081.04038778364
 20
527.4999999999998
 30
0.0
 11
1081.04038778364
 21
102.4999999999999
 31
0.0
  0
SOLID
  5
1F7D
330
1F36
100
AcDbEntity
  8
cotes
 62
     0
100
AcDbTrace
 10
1080.623721116974
 20
527.4999999999998
 30
0.0
 11
1081.457054450307
 21
527.4999999999998
 31
0.0
 12
1081.04038778364
 22
529.9999999999998
 32
0.0
 13
1081.04038778364
 23
529.9999999999998
 33
0.0
  0
SOLID
  5
1F7E
330
1F36
100
AcDbEntity
  8
cotes
 62
     0
100
AcDbTrace
 10
1080.623721116974
 20
102.4999999999999
 30
0.0
 11
1081.457054450307
 21
102.4999999999999
 31
0.0
 12
1081.04038778364
 22
100.0
 32
0.0
 13
1081.04038778364
 23
100.0
 33
0.0
  0
MTEXT
  5
1F7F
330
1F36
100
AcDbEntity
  8
cotes
 62
     0
100
AcDbMText
 10
1075.41538778364
 20
315.0000000000001
 30
0.0
 40
10.0
 41
0.0
 71
     5
 72
     1
  1
430
 11
0.0000000000000001
 21
1.0
 31
0.0
 73
     1
 44
1.0
  0
POINT
  5
1F80
330
1F36
100
AcDbEntity
  8
Defpoints
 62
     0
100
AcDbPoint
 10
1004.415985835376
 20
529.9999999999998
 30
0.0
  0
POINT
  5
1F81
330
1F36
100
AcDbEntity
  8
Defpoints
 62
     0
100
AcDbPoint
 10
1004.415985835376
 20
100.0
 30
0.0
  0
POINT
  5
1F82
330
1F36
100
AcDbEntity
  8
Defpoints
 62
     0
100
AcDbPoint
 10
1081.04038778364
 20
100.0
 30
0.0
  0
ENDBLK
  5
1F41
330
1F36
100
AcDbEntity
  8
0
100
AcDbBlockEnd
  0
BLOCK
  5
1F51
330
1F47
100
AcDbEntity
  8
0
100
AcDbBlockBegin
  2
*D5
 70
     1
 10
0.0
 20
0.0
 30
0.0
  3
*D5
  1

  0
LINE
  5
1F83
330
1F47
100
AcDbEntity
  8
cotes
 62
     0
370
    -2
100
AcDbLine
 10
1272.265836704282
 20
638.0695523554686
 30
0.0
 11
1292.327822981934
 21
609.4180666417525
 31
0.0
  0
LINE
  5
1F84
330
1F47
100
AcDbEntity
  8
cotes
 62
     0
370
    -2
100
AcDbLine
 10
1319.370023513042
 20
671.0522590402002
 30
0.0
 11
1339.432009790693
 21
642.4007733264841
 31
0.0
  0
LINE
  5
1F85
330
1F47
100
AcDbEntity
  8
cotes
 62
     0
370
    -2
100
AcDbLine
 10
1293.658732547218
 20
611.8759477879913
 30
0.0
 11
1336.667159134532
 21
641.9907722909677
 31
0.0
  0
SOLID
  5
1F86
330
1F47
100
AcDbEntity
  8
cotes
 62
     0
100
AcDbTrace
 10
1293.419742365405
 20
612.2172611397784
 30
0.0
 11
1293.897722729031
 21
611.5346344362042
 31
0.0
 12
1291.610852436495
 22
610.4420066971137
 32
0.0
 13
1291.610852436495
 23
610.4420066971137
 33
0.0
  0
SOLID
  5
1F87
330
1F47
100
AcDbEntity
  8
cotes
 62
     0
100
AcDbTrace
 10
1336.428168952719
 20
642.3320856427547
 30
0.0
 11
1336.906149316345
 21
641.6494589391807
 31
0.0
 12
1338.715039245255
 22
643.4247133818453
 32
0.0
 13
1338.715039245255
 23
643.4247133818453
 33
0.0
  0
MTEXT
  5
1F88
330
1F47
100
AcDbEntity
  8
cotes
 62
     0
100
AcDbMText
 10
1311.458598022774
 20
632.2237169921792
 30
0.0
 40
10.0
 41
0.0
 71
     5
 72
     1
  1
57,5
 11
0.8191520442889931
 21
0.5735764363510441
 31
0.0
 73
     1
 44
1.0
  0
POINT
  5
1F89
330
1F47
100
AcDbEntity
  8
Defpoints
 62
     0
100
AcDbPoint
 10
1271.907351431563
 20
638.5815223831493
 30
0.0
  0
POINT
  5
1F8A
330
1F47
100
AcDbEntity
  8
Defpoints
 62
     0
100
AcDbPoint
 10
1319.011538240322
 20
671.5642290678808
 30
0.0
  0
POINT
  5
1F8B
330
1F47
100
AcDbEntity
  8
Defpoints
 62
     0
100
AcDbPoint
 10
1338.715039245255
 20
643.4247133818453
 30
0.0
  0
ENDBLK
  5
1F52
330
1F47
100
AcDbEntity
  8
0
100
AcDbBlockEnd
  0
BLOCK
  5
206D
330
2062
100
AcDbEntity
  8
0
100
AcDbBlockBegin
  2
*D6
 70
     1
 10
0.0
 20
0.0
 30
0.0
  3
*D6
  1

  0
LINE
  5
20DF
330
2062
100
AcDbEntity
  8
cotes
 62
     0
370
    -2
100
AcDbLine
 10
798.3797714889332
 20
611.4582081501922
 30
0.0
 11
795.1580352201735
 21
613.2063868357495
 31
0.0
  0
ARC
  5
20E0
330
2062
100
AcDbEntity
  8
cotes
 62
     0
370
    -2
100
AcDbCircle
 10
968.4136969697178
 20
519.194391515232
 30
0.0
 40
195.8686941728702
100
AcDbArc
 50
17.43773844485432
 51
150.7835465390369
  0
SOLID
  5
20E1
330
2062
100
AcDbEntity
  8
cotes
 62
     0
100
AcDbTrace
 10
1155.679190717332
 20
578.0125384383349
 30
0.0
 11
1154.882577247155
 21
577.7678929323944
 31
0.0
 12
1156.014820500065
 22
575.5003752748337
 32
0.0
 13
1156.014820500065
 23
575.5003752748337
 33
0.0
  0
SOLID
  5
20E2
330
2062
100
AcDbEntity
  8
cotes
 62
     0
100
AcDbTrace
 10
797.8279869598321
 20
614.5988668851572
 30
0.0
 11
797.0980876215464
 21
615.0009755774465
 31
0.0
 12
796.2567112138211
 22
612.610223216445
 32
0.0
 13
796.2567112138211
 23
612.610223216445
 33
0.0
  0
MTEXT
  5
20E3
330
2062
100
AcDbEntity
  8
cotes
 62
     0
100
AcDbMText
 10
989.088516086136
 20
719.6245804737159
 30
0.0
 40
10.0
 41
0.0
 71
     5
 72
     1
  1
135°
 11
0.994721893314071
 21
-0.1026077724232918
 31
0.0
 73
     1
 44
1.0
  0
POINT
  5
20E4
330
2062
100
AcDbEntity
  8
Defpoints
 62
     0
100
AcDbPoint
 10
1061.445545625977
 20
691.5591805313887
 30
0.0
  0
POINT
  5
20E5
330
2062
100
AcDbEntity
  8
Defpoints
 62
     0
100
AcDbPoint
 10
1670.778993828547
 20
730.0
 30
0.0
  0
POINT
  5
20E6
330
2062
100
AcDbEntity
  8
Defpoints
 62
     0
100
AcDbPoint
 10
922.208815151883
 20
544.2660866585785
 30
0.0
  0
POINT
  5
20E7
330
2062
100
AcDbEntity
  8
Defpoints
 62
     0
100
AcDbPoint
 10
798.9291094857572
 20
611.16012634054
 30
0.0
  0
POINT
  5
20E8
330
2062
100
AcDbEntity
  8
Defpoints
 62
     0
100
AcDbPoint
 10
1004.415985835253
 20
529.9999999999989
 30
0.0
  0
ENDBLK
  5
206E
330
2062
100
AcDbEntity
  8
0
100
AcDbBlockEnd
  0
BLOCK
  5
2080
330
2076
100
AcDbEntity
  8
0
100
AcDbBlockBegin
  2
*D7
 70
     1
 10
0.0
 20
0.0
 30
0.0
  3
*D7
  1

  0
ARC
  5
20F2
330
2076
100
AcDbEntity
  8
cotes
 62
     0
370
    -2
100
AcDbCircle
 10
1144.5101492781
 20
475.0
 30
0.0
 40
59.5412532576175
100
AcDbArc
 50
72.40589448431467
 51
177.5979722111021
  0
SOLID
  5
20F3
330
2076
100
AcDbEntity
  8
cotes
 62
     0
100
AcDbTrace
 10
1162.642049744624
 20
532.1504629169196
 30
0.0
 11
1162.373535577926
 21
531.3615747203247
 31
0.0
 12
1164.87445725106
 22
530.950476318528
 32
0.0
 13
1164.87445725106
 23
530.950476318528
 33
0.0
  0
SOLID
  5
20F4
330
2076
100
AcDbEntity
  8
cotes
 62
     0
100
AcDbTrace
 10
1085.437787520613
 20
477.4867149905248
 30
0.0
 11
1084.604636671097
 21
477.5041536371194
 31
0.0
 12
1084.968896156071
 22
474.9959817652738
 32
0.0
 13
1084.968896156071
 23
474.9959817652738
 33
0.0
  0
MTEXT
  5
20F5
330
2076
100
AcDbEntity
  8
cotes
 62
     0
100
AcDbMText
 10
1107.130520732983
 20
528.3798082936332
 30
0.0
 40
10.0
 41
0.0
 71
     5
 72
     1
  1
110°
 11
0.819132689470579
 21
0.5736040769038309
 31
0.0
 73
     1
 44
1.0
  0
POINT
  5
20F6
330
2076
100
AcDbEntity
  8
Defpoints
 62
     0
100
AcDbPoint
 10
1127.432242226224
 20
532.0395120089155
 30
0.0
  0
POINT
  5
20F7
330
2076
100
AcDbEntity
  8
Defpoints
 62
     0
100
AcDbPoint
 10
932.5935407805699
 20
474.9856984757512
 30
0.0
  0
POINT
  5
20F8
330
2076
100
AcDbEntity
  8
Defpoints
 62
     0
100
AcDbPoint
 10
1227.257893013785
 20
702.347557424613
 30
0.0
  0
POINT
  5
20F9
330
2076
100
AcDbEntity
  8
Defpoints
 62
     0
100
AcDbPoint
 10
1144.5101492781
 20
475.0
 30
0.0
  0
POINT
  5
20FA
330
2076
100
AcDbEntity
  8
Defpoints
 62
     0
100
AcDbPoint
 10
1144.5101492781
 20
475.0
 30
0.0
  0
ENDBLK
  5
2081
330
2076
100
AcDbEntity
  8
0
100
AcDbBlockEnd
  0
BLOCK
  5
208D
330
2083
100
AcDbEntity
  8
0
100
AcDbBlockBegin
  2
*D8
 70
     1
 10
0.0
 20
0.0
 30
0.0
  3
*D8
  1

  0
ARC
  5
20E9
330
2083
100
AcDbEntity
  8
cotes
 62
     0
370
    -2
100
AcDbCircle
 10
932.5935407805699
 20
474.9856984757512
 30
0.0
 40
49.62937389551344
100
AcDbArc
 50
2.89035480365434
 51
152.1135118917624
  0
SOLID
  5
20EA
330
2083
100
AcDbEntity
  8
cotes
 62
     0
100
AcDbTrace
 10
982.5763129341108
 20
477.4987730162678
 30
0.0
 11
981.7432453817865
 21
477.4777278812286
 31
0.0
 12
982.2229145630666
 22
474.9890477917752
 32
0.0
 13
982.2229145630666
 23
474.9890477917752
 33
0.0
  0
SOLID
  5
20EB
330
2083
100
AcDbEntity
  8
cotes
 62
     0
100
AcDbTrace
 10
889.1004037815935
 20
498.0128717050656
 30
0.0
 11
888.35425718472
 21
498.3839642816802
 31
0.0
 12
887.6140527533129
 22
495.9599782027522
 32
0.0
 13
887.6140527533129
 23
495.9599782027522
 33
0.0
  0
MTEXT
  5
20EC
330
2083
100
AcDbEntity
  8
cotes
 62
     0
100
AcDbMText
 10
944.5509558593586
 20
528.9307265990061
 30
0.0
 40
10.0
 41
0.0
 71
     5
 72
     1
  1
155°
 11
0.9763033099472886
 21
-0.2164066703823343
 31
0.0
 73
     1
 44
1.0
  0
POINT
  5
20ED
330
2083
100
AcDbEntity
  8
Defpoints
 62
     0
100
AcDbPoint
 10
963.3736883448644
 20
513.9171416699217
 30
0.0
  0
POINT
  5
20EE
330
2083
100
AcDbEntity
  8
Defpoints
 62
     0
100
AcDbPoint
 10
932.5935407805699
 20
474.9856984757512
 30
0.0
  0
POINT
  5
20EF
330
2083
100
AcDbEntity
  8
Defpoints
 62
     0
100
AcDbPoint
 10
618.8604751438914
 20
621.2818295985795
 30
0.0
  0
POINT
  5
20F0
330
2083
100
AcDbEntity
  8
Defpoints
 62
     0
100
AcDbPoint
 10
932.5935407805699
 20
474.9856984757512
 30
0.0
  0
POINT
  5
20F1
330
2083
100
AcDbEntity
  8
Defpoints
 62
     0
100
AcDbPoint
 10
1144.5101492781
 20
475.0
 30
0.0
  0
ENDBLK
  5
208E
330
2083
100
AcDbEntity
  8
0
100
AcDbBlockEnd
  0
BLOCK
  5
209D
330
2093
100
AcDbEntity
  8
0
100
AcDbBlockBegin
  2
*D9
 70
     1
 10
0.0
 20
0.0
 30
0.0
  3
*D9
  1

  0
LINE
  5
2104
330
2093
100
AcDbEntity
  8
cotes
 62
     0
370
    -2
100
AcDbLine
 10
932.5935407805699
 20
474.3606984757511
 30
0.0
 11
932.5935407805699
 21
362.7675719263925
 31
0.0
  0
LINE
  5
2105
330
2093
100
AcDbEntity
  8
cotes
 62
     0
370
    -2
100
AcDbLine
 10
1144.5101492781
 20
474.3749999999998
 30
0.0
 11
1144.5101492781
 21
362.7675719263925
 31
0.0
  0
LINE
  5
2106
330
2093
100
AcDbEntity
  8
cotes
 62
     0
370
    -2
100
AcDbLine
 10
935.09354078057
 20
364.0175719263925
 30
0.0
 11
1142.0101492781
 21
364.0175719263925
 31
0.0
  0
SOLID
  5
2107
330
2093
100
AcDbEntity
  8
cotes
 62
     0
100
AcDbTrace
 10
935.09354078057
 20
364.4342385930592
 30
0.0
 11
935.09354078057
 21
363.6009052597258
 31
0.0
 12
932.5935407805699
 22
364.0175719263925
 32
0.0
 13
932.5935407805699
 23
364.0175719263925
 33
0.0
  0
SOLID
  5
2108
330
2093
100
AcDbEntity
  8
cotes
 62
     0
100
AcDbTrace
 10
1142.0101492781
 20
364.4342385930592
 30
0.0
 11
1142.0101492781
 21
363.6009052597258
 31
0.0
 12
1144.5101492781
 22
364.0175719263925
 32
0.0
 13
1144.5101492781
 23
364.0175719263925
 33
0.0
  0
MTEXT
  5
2109
330
2093
100
AcDbEntity
  8
cotes
 62
     0
100
AcDbMText
 10
1038.551845029335
 20
370.4759052597258
 30
0.0
 40
10.0
 41
0.0
 71
     5
 72
     1
  1
211,92
 73
     1
 44
1.0
  0
POINT
  5
210A
330
2093
100
AcDbEntity
  8
Defpoints
 62
     0
100
AcDbPoint
 10
932.5935407805699
 20
474.9856984757512
 30
0.0
  0
POINT
  5
210B
330
2093
100
AcDbEntity
  8
Defpoints
 62
     0
100
AcDbPoint
 10
1144.5101492781
 20
474.9999999999998
 30
0.0
  0
POINT
  5
210C
330
2093
100
AcDbEntity
  8
Defpoints
 62
     0
100
AcDbPoint
 10
1144.5101492781
 20
364.0175719263925
 30
0.0
  0
ENDBLK
  5
209E
330
2093
100
AcDbEntity
  8
0
100
AcDbBlockEnd
  0
BLOCK
  5
20AC
330
20A2
100
AcDbEntity
  8
0
100
AcDbBlockBegin
  2
*D10
 70
     1
 10
0.0
 20
0.0
 30
0.0
  3
*D10
  1

  0
LINE
  5
210D
330
20A2
100
AcDbEntity
  8
cotes
 62
     0
370
    -2
100
AcDbLine
 10
1144.5101492781
 20
473.7499999999998
 30
0.0
 11
1144.5101492781
 21
361.5175719263925
 31
0.0
  0
LINE
  5
210E
330
20A2
100
AcDbEntity
  8
cotes
 62
     0
370
    -2
100
AcDbLine
 10
1227.257893013785
 20
474.375
 30
0.0
 11
1227.257893013785
 21
361.5175719263925
 31
0.0
  0
LINE
  5
210F
330
20A2
100
AcDbEntity
  8
cotes
 62
     0
370
    -2
100
AcDbLine
 10
1147.0101492781
 20
362.7675719263925
 30
0.0
 11
1224.757893013785
 21
362.7675719263925
 31
0.0
  0
SOLID
  5
2110
330
20A2
100
AcDbEntity
  8
cotes
 62
     0
100
AcDbTrace
 10
1147.0101492781
 20
363.1842385930592
 30
0.0
 11
1147.0101492781
 21
362.3509052597258
 31
0.0
 12
1144.5101492781
 22
362.7675719263925
 32
0.0
 13
1144.5101492781
 23
362.7675719263925
 33
0.0
  0
SOLID
  5
2111
330
20A2
100
AcDbEntity
  8
cotes
 62
     0
100
AcDbTrace
 10
1224.757893013785
 20
363.1842385930592
 30
0.0
 11
1224.757893013785
 21
362.3509052597258
 31
0.0
 12
1227.257893013785
 22
362.7675719263925
 32
0.0
 13
1227.257893013785
 23
362.7675719263925
 33
0.0
  0
MTEXT
  5
2112
330
20A2
100
AcDbEntity
  8
cotes
 62
     0
100
AcDbMText
 10
1185.884021145943
 20
369.2259052597258
 30
0.0
 40
10.0
 41
0.0
 71
     5
 72
     1
  1
82,75
 73
     1
 44
1.0
  0
POINT
  5
2113
330
20A2
100
AcDbEntity
  8
Defpoints
 62
     0
100
AcDbPoint
 10
1144.5101492781
 20
474.3749999999998
 30
0.0
  0
POINT
  5
2114
330
20A2
100
AcDbEntity
  8
Defpoints
 62
     0
100
AcDbPoint
 10
1227.257893013785
 20
475.0
 30
0.0
  0
POINT
  5
2115
330
20A2
100
AcDbEntity
  8
Defpoints
 62
     0
100
AcDbPoint
 10
1227.257893013785
 20
362.7675719263925
 30
0.0
  0
ENDBLK
  5
20AD
330
20A2
100
AcDbEntity
  8
0
100
AcDbBlockEnd
  0
BLOCK
  5
20B9
330
20AF
100
AcDbEntity
  8
0
100
AcDbBlockBegin
  2
*D11
 70
     1
 10
0.0
 20
0.0
 30
0.0
  3
*D11
  1

  0
LINE
  5
2116
330
20AF
100
AcDbEntity
  8
cotes
 62
     0
370
    -2
100
AcDbLine
 10
1227.257893013785
 20
474.375
 30
0.0
 11
1227.257893013785
 21
361.9342385930591
 31
0.0
  0
LINE
  5
2117
330
20AF
100
AcDbEntity
  8
cotes
 62
     0
370
    -2
100
AcDbLine
 10
1386.448366516064
 20
474.3749999999999
 30
0.0
 11
1386.448366516064
 21
361.9342385930591
 31
0.0
  0
LINE
  5
2118
330
20AF
100
AcDbEntity
  8
cotes
 62
     0
370
    -2
100
AcDbLine
 10
1229.757893013785
 20
363.1842385930592
 30
0.0
 11
1383.948366516064
 21
363.1842385930592
 31
0.0
  0
SOLID
  5
2119
330
20AF
100
AcDbEntity
  8
cotes
 62
     0
100
AcDbTrace
 10
1229.757893013785
 20
363.6009052597259
 30
0.0
 11
1229.757893013785
 21
362.7675719263925
 31
0.0
 12
1227.257893013785
 22
363.1842385930592
 32
0.0
 13
1227.257893013785
 23
363.1842385930592
 33
0.0
  0
SOLID
  5
211A
330
20AF
100
AcDbEntity
  8
cotes
 62
     0
100
AcDbTrace
 10
1383.948366516064
 20
363.6009052597259
 30
0.0
 11
1383.948366516064
 21
362.7675719263925
 31
0.0
 12
1386.448366516064
 22
363.1842385930592
 32
0.0
 13
1386.448366516064
 23
363.1842385930592
 33
0.0
  0
MTEXT
  5
211B
330
20AF
100
AcDbEntity
  8
cotes
 62
     0
100
AcDbMText
 10
1306.853129764925
 20
369.6425719263925
 30
0.0
 40
10.0
 41
0.0
 71
     5
 72
     1
  1
159,19
 73
     1
 44
1.0
  0
POINT
  5
211C
330
20AF
100
AcDbEntity
  8
Defpoints
 62
     0
100
AcDbPoint
 10
1227.257893013785
 20
475.0
 30
0.0
  0
POINT
  5
211D
330
20AF
100
AcDbEntity
  8
Defpoints
 62
     0
100
AcDbPoint
 10
1386.448366516064
 20
474.9999999999999
 30
0.0
  0
POINT
  5
211E
330
20AF
100
AcDbEntity
  8
Defpoints
 62
     0
100
AcDbPoint
 10
1386.448366516064
 20
363.1842385930592
 30
0.0
  0
ENDBLK
  5
20BA
330
20AF
100
AcDbEntity
  8
0
100
AcDbBlockEnd
  0
BLOCK
  5
20C7
330
20BD
100
AcDbEntity
  8
0
100
AcDbBlockBegin
  2
*D12
 70
     1
 10
0.0
 20
0.0
 30
0.0
  3
*D12
  1

  0
LINE
  5
20FB
330
20BD
100
AcDbEntity
  8
cotes
 62
     0
370
    -2
100
AcDbLine
 10
657.7521283576452
 20
474.375
 30
0.0
 11
657.7521283576452
 21
362.7675719263925
 31
0.0
  0
LINE
  5
20FC
330
20BD
100
AcDbEntity
  8
cotes
 62
     0
370
    -2
100
AcDbLine
 10
932.5935407805699
 20
474.5133421565486
 30
0.0
 11
932.5935407805699
 21
362.7675719263925
 31
0.0
  0
LINE
  5
20FD
330
20BD
100
AcDbEntity
  8
cotes
 62
     0
370
    -2
100
AcDbLine
 10
660.2521283576452
 20
364.0175719263925
 30
0.0
 11
930.0935407805701
 21
364.0175719263925
 31
0.0
  0
SOLID
  5
20FE
330
20BD
100
AcDbEntity
  8
cotes
 62
     0
100
AcDbTrace
 10
660.2521283576452
 20
364.4342385930592
 30
0.0
 11
660.2521283576452
 21
363.6009052597258
 31
0.0
 12
657.7521283576452
 22
364.0175719263925
 32
0.0
 13
657.7521283576452
 23
364.0175719263925
 33
0.0
  0
SOLID
  5
20FF
330
20BD
100
AcDbEntity
  8
cotes
 62
     0
100
AcDbTrace
 10
930.0935407805701
 20
364.4342385930592
 30
0.0
 11
930.0935407805701
 21
363.6009052597258
 31
0.0
 12
932.5935407805699
 22
364.0175719263925
 32
0.0
 13
932.5935407805699
 23
364.0175719263925
 33
0.0
  0
MTEXT
  5
2100
330
20BD
100
AcDbEntity
  8
cotes
 62
     0
100
AcDbMText
 10
795.1728345691076
 20
370.4759052597258
 30
0.0
 40
10.0
 41
0.0
 71
     5
 72
     1
  1
274,84
 73
     1
 44
1.0
  0
POINT
  5
2101
330
20BD
100
AcDbEntity
  8
Defpoints
 62
     0
100
AcDbPoint
 10
657.7521283576452
 20
475.0
 30
0.0
  0
POINT
  5
2102
330
20BD
100
AcDbEntity
  8
Defpoints
 62
     0
100
AcDbPoint
 10
932.5935407805699
 20
475.1383421565486
 30
0.0
  0
POINT
  5
2103
330
20BD
100
AcDbEntity
  8
Defpoints
 62
     0
100
AcDbPoint
 10
932.5935407805699
 20
364.0175719263925
 30
0.0
  0
ENDBLK
  5
20C8
330
20BD
100
AcDbEntity
  8
0
100
AcDbBlockEnd
  0
BLOCK
  5
20D4
330
20CA
100
AcDbEntity
  8
0
100
AcDbBlockBegin
  2
*D13
 70
     1
 10
0.0
 20
0.0
 30
0.0
  3
*D13
  1

  0
LINE
  5
2383
330
20CA
100
AcDbEntity
  8
cotes
 62
     0
370
    -2
100
AcDbLine
 10
658.3771283576452
 20
603.1463538666976
 30
0.0
 11
706.8985981392243
 21
603.1463538666976
 31
0.0
  0
LINE
  5
2384
330
20CA
100
AcDbEntity
  8
cotes
 62
     0
370
    -2
100
AcDbLine
 10
658.3771283576452
 20
475.0
 30
0.0
 11
706.8985981392243
 21
475.0
 31
0.0
  0
LINE
  5
2385
330
20CA
100
AcDbEntity
  8
cotes
 62
     0
370
    -2
100
AcDbLine
 10
705.6485981392243
 20
600.6463538666976
 30
0.0
 11
705.6485981392243
 21
477.5
 31
0.0
  0
SOLID
  5
2386
330
20CA
100
AcDbEntity
  8
cotes
 62
     0
100
AcDbTrace
 10
705.2319314725576
 20
600.6463538666976
 30
0.0
 11
706.0652648058909
 21
600.6463538666976
 31
0.0
 12
705.6485981392243
 22
603.1463538666976
 32
0.0
 13
705.6485981392243
 23
603.1463538666976
 33
0.0
  0
SOLID
  5
2387
330
20CA
100
AcDbEntity
  8
cotes
 62
     0
100
AcDbTrace
 10
705.2319314725576
 20
477.5
 30
0.0
 11
706.0652648058909
 21
477.5
 31
0.0
 12
705.6485981392243
 22
475.0
 32
0.0
 13
705.6485981392243
 23
475.0
 33
0.0
  0
MTEXT
  5
2388
330
20CA
100
AcDbEntity
  8
cotes
 62
     0
100
AcDbMText
 10
699.1902648058908
 20
539.0731769333489
 30
0.0
 40
10.0
 41
0.0
 71
     5
 72
     1
  1
128,15
 11
0.0000000000000001
 21
1.0
 31
0.0
 73
     1
 44
1.0
  0
POINT
  5
2389
330
20CA
100
AcDbEntity
  8
Defpoints
 62
     0
100
AcDbPoint
 10
657.7521283576452
 20
603.1463538666976
 30
0.0
  0
POINT
  5
238A
330
20CA
100
AcDbEntity
  8
Defpoints
 62
     0
100
AcDbPoint
 10
657.7521283576452
 20
475.0
 30
0.0
  0
POINT
  5
238B
330
20CA
100
AcDbEntity
  8
Defpoints
 62
     0
100
AcDbPoint
 10
705.6485981392243
 20
475.0
 30
0.0
  0
ENDBLK
  5
20D5
330
20CA
100
AcDbEntity
  8
0
100
AcDbBlockEnd
  0
BLOCK
  5
2142
330
2138
100
AcDbEntity
  8
0
100
AcDbBlockBegin
  2
*D14
 70
     1
 10
0.0
 20
0.0
 30
0.0
  3
*D14
  1

  0
LINE
  5
2139
330
2138
100
AcDbEntity
  8
cotes
 62
     0
370
    -2
100
AcDbLine
 10
658.3771283576452
 20
474.375
 30
0.0
 11
658.3771283576452
 21
362.3509052597258
 31
0.0
  0
LINE
  5
213A
330
2138
100
AcDbEntity
  8
cotes
 62
     0
370
    -2
100
AcDbLine
 10
300.0
 20
474.375
 30
0.0
 11
300.0
 21
362.3509052597258
 31
0.0
  0
LINE
  5
213B
330
2138
100
AcDbEntity
  8
cotes
 62
     0
370
    -2
100
AcDbLine
 10
655.8771283576452
 20
363.6009052597258
 30
0.0
 11
302.4999999999999
 21
363.6009052597258
 31
0.0
  0
SOLID
  5
213C
330
2138
100
AcDbEntity
  8
cotes
 62
     0
100
AcDbTrace
 10
655.8771283576452
 20
364.0175719263925
 30
0.0
 11
655.8771283576452
 21
363.1842385930591
 31
0.0
 12
658.3771283576452
 22
363.6009052597258
 32
0.0
 13
658.3771283576452
 23
363.6009052597258
 33
0.0
  0
SOLID
  5
213D
330
2138
100
AcDbEntity
  8
cotes
 62
     0
100
AcDbTrace
 10
302.4999999999999
 20
364.0175719263925
 30
0.0
 11
302.4999999999999
 21
363.1842385930591
 31
0.0
 12
300.0
 22
363.6009052597258
 32
0.0
 13
300.0
 23
363.6009052597258
 33
0.0
  0
MTEXT
  5
213E
330
2138
100
AcDbEntity
  8
cotes
 62
     0
100
AcDbMText
 10
479.1885641788225
 20
365.6842385930591
 30
0.0
 40
2.5
 41
0.0
 71
     5
 72
     1
  1
358,38
 73
     1
 44
1.0
  0
POINT
  5
213F
330
2138
100
AcDbEntity
  8
Defpoints
 62
     0
100
AcDbPoint
 10
658.3771283576452
 20
475.0
 30
0.0
  0
POINT
  5
2140
330
2138
100
AcDbEntity
  8
Defpoints
 62
     0
100
AcDbPoint
 10
300.0
 20
475.0
 30
0.0
  0
POINT
  5
2141
330
2138
100
AcDbEntity
  8
Defpoints
 62
     0
100
AcDbPoint
 10
300.0
 20
363.6009052597258
 30
0.0
  0
ENDBLK
  5
2143
330
2138
100
AcDbEntity
  8
0
100
AcDbBlockEnd
  0
BLOCK
  5
214F
330
2145
100
AcDbEntity
  8
0
100
AcDbBlockBegin
  2
*D15
 70
     1
 10
0.0
 20
0.0
 30
0.0
  3
*D15
  1

  0
LINE
  5
2151
330
2145
100
AcDbEntity
  8
cotes
 62
     0
370
    -2
100
AcDbLine
 10
618.8604751438913
 20
621.9068295985795
 30
0.0
 11
618.8604751438913
 21
701.5784981330925
 31
0.0
  0
LINE
  5
2152
330
2145
100
AcDbEntity
  8
cotes
 62
     0
370
    -2
100
AcDbLine
 10
657.7521283576452
 20
603.7713538666976
 30
0.0
 11
657.7521283576452
 21
701.5784981330925
 31
0.0
  0
LINE
  5
2153
330
2145
100
AcDbEntity
  8
cotes
 62
     0
370
    -2
100
AcDbLine
 10
621.3604751438913
 20
700.3284981330925
 30
0.0
 11
655.2521283576452
 21
700.3284981330925
 31
0.0
  0
LINE
  5
2154
330
2145
100
AcDbEntity
  8
cotes
 62
     0
370
    -2
100
AcDbLine
 10
657.7521283576452
 20
700.3284981330925
 30
0.0
 11
703.1687950243118
 21
700.3284981330925
 31
0.0
  0
SOLID
  5
2155
330
2145
100
AcDbEntity
  8
cotes
 62
     0
100
AcDbTrace
 10
621.3604751438913
 20
700.7451647997592
 30
0.0
 11
621.3604751438913
 21
699.9118314664259
 31
0.0
 12
618.8604751438913
 22
700.3284981330925
 32
0.0
 13
618.8604751438913
 23
700.3284981330925
 33
0.0
  0
SOLID
  5
2156
330
2145
100
AcDbEntity
  8
cotes
 62
     0
100
AcDbTrace
 10
655.2521283576452
 20
700.7451647997592
 30
0.0
 11
655.2521283576452
 21
699.9118314664259
 31
0.0
 12
657.7521283576452
 22
700.3284981330925
 32
0.0
 13
657.7521283576452
 23
700.3284981330925
 33
0.0
  0
MTEXT
  5
2157
330
2145
100
AcDbEntity
  8
cotes
 62
     0
100
AcDbMText
 10
681.7104616909785
 20
706.7868314664259
 30
0.0
 40
10.0
 41
0.0
 71
     5
 72
     1
  1
38,89
 73
     1
 44
1.0
  0
POINT
  5
2158
330
2145
100
AcDbEntity
  8
Defpoints
 62
     0
100
AcDbPoint
 10
618.8604751438913
 20
621.2818295985795
 30
0.0
  0
POINT
  5
2159
330
2145
100
AcDbEntity
  8
Defpoints
 62
     0
100
AcDbPoint
 10
657.7521283576452
 20
603.1463538666976
 30
0.0
  0
POINT
  5
215A
330
2145
100
AcDbEntity
  8
Defpoints
 62
     0
100
AcDbPoint
 10
657.7521283576452
 20
700.3284981330925
 30
0.0
  0
ENDBLK
  5
2150
330
2145
100
AcDbEntity
  8
0
100
AcDbBlockEnd
  0
BLOCK
  5
218C
330
2182
100
AcDbEntity
  8
0
100
AcDbBlockBegin
  2
*D16
 70
     1
 10
0.0
 20
0.0
 30
0.0
  3
*D16
  1

  0
LINE
  5
21C7
330
2182
100
AcDbEntity
  8
cotes
 62
     0
370
    -2
100
AcDbLine
 10
1227.296105304799
 20
702.562743819588
 30
0.0
 11
1168.593985812039
 21
724.089945697859
 31
0.0
  0
LINE
  5
21C8
330
2182
100
AcDbEntity
  8
cotes
 62
     0
370
    -2
100
AcDbLine
 10
1143.923361569114
 20
475.2151863949749
 30
0.0
 11
1085.221242076353
 21
496.742388273246
 31
0.0
  0
LINE
  5
21C9
330
2182
100
AcDbEntity
  8
cotes
 62
     0
370
    -2
100
AcDbLine
 10
1168.906815650111
 20
721.3124220719627
 30
0.0
 11
1087.255563074226
 21
498.659166319242
 31
0.0
  0
SOLID
  5
21CA
330
2182
100
AcDbEntity
  8
cotes
 62
     0
100
AcDbTrace
 10
1168.51562384412
 20
721.4558796686128
 30
0.0
 11
1169.298007456102
 21
721.1689644753128
 31
0.0
 12
1169.767561230012
 22
723.659572907909
 32
0.0
 13
1169.767561230012
 23
723.659572907909
 33
0.0
  0
SOLID
  5
21CB
330
2182
100
AcDbEntity
  8
cotes
 62
     0
100
AcDbTrace
 10
1086.864371268235
 20
498.802623915892
 30
0.0
 11
1087.646754880218
 21
498.515708722592
 31
0.0
 12
1086.394817494326
 22
496.3120154832959
 32
0.0
 13
1086.394817494326
 23
496.3120154832959
 33
0.0
  0
MTEXT
  5
21CC
330
2182
100
AcDbEntity
  8
cotes
 62
     0
100
AcDbMText
 10
1122.017716369309
 20
612.2093869436777
 30
0.0
 40
10.0
 41
0.0
 71
     5
 72
     1
  1
242,15
 11
0.3442982319600607
 21
0.9388603343784293
 31
0.0
 73
     1
 44
1.0
  0
POINT
  5
21CD
330
2182
100
AcDbEntity
  8
Defpoints
 62
     0
100
AcDbPoint
 10
1227.882893013785
 20
702.347557424613
 30
0.0
  0
POINT
  5
21CE
330
2182
100
AcDbEntity
  8
Defpoints
 62
     0
100
AcDbPoint
 10
1144.5101492781
 20
474.9999999999999
 30
0.0
  0
POINT
  5
21CF
330
2182
100
AcDbEntity
  8
Defpoints
 62
     0
100
AcDbPoint
 10
1086.394817494326
 20
496.3120154832959
 30
0.0
  0
ENDBLK
  5
218D
330
2182
100
AcDbEntity
  8
0
100
AcDbBlockEnd
  0
BLOCK
  5
2199
330
218F
100
AcDbEntity
  8
0
100
AcDbBlockBegin
  2
*D17
 70
     1
 10
0.0
 20
0.0
 30
0.0
  3
*D17
  1

  0
LINE
  5
21F3
330
218F
100
AcDbEntity
  8
cotes
 62
     0
370
    -2
100
AcDbLine
 10
1005.040985835376
 20
474.3655877050549
 30
0.0
 11
1005.040985835376
 21
427.3091554016223
 31
0.0
  0
LINE
  5
21F4
330
218F
100
AcDbEntity
  8
cotes
 62
     0
370
    -2
100
AcDbLine
 10
1143.923361569114
 20
474.5901863949749
 30
0.0
 11
1143.923361569114
 21
427.3091554016223
 31
0.0
  0
LINE
  5
21F5
330
218F
100
AcDbEntity
  8
cotes
 62
     0
370
    -2
100
AcDbLine
 10
1007.540985835376
 20
428.5591554016223
 30
0.0
 11
1141.423361569114
 21
428.5591554016223
 31
0.0
  0
SOLID
  5
21F6
330
218F
100
AcDbEntity
  8
cotes
 62
     0
100
AcDbTrace
 10
1007.540985835376
 20
428.975822068289
 30
0.0
 11
1007.540985835376
 21
428.1424887349556
 31
0.0
 12
1005.040985835376
 22
428.5591554016223
 32
0.0
 13
1005.040985835376
 23
428.5591554016223
 33
0.0
  0
SOLID
  5
21F7
330
218F
100
AcDbEntity
  8
cotes
 62
     0
100
AcDbTrace
 10
1141.423361569114
 20
428.975822068289
 30
0.0
 11
1141.423361569114
 21
428.1424887349556
 31
0.0
 12
1143.923361569114
 22
428.5591554016223
 32
0.0
 13
1143.923361569114
 23
428.5591554016223
 33
0.0
  0
MTEXT
  5
21F8
330
218F
100
AcDbEntity
  8
cotes
 62
     0
100
AcDbMText
 10
1074.482173702245
 20
435.0174887349556
 30
0.0
 40
10.0
 41
0.0
 71
     5
 72
     1
  1
138,88
 73
     1
 44
1.0
  0
POINT
  5
21F9
330
218F
100
AcDbEntity
  8
Defpoints
 62
     0
100
AcDbPoint
 10
1005.040985835376
 20
474.9905877050549
 30
0.0
  0
POINT
  5
21FA
330
218F
100
AcDbEntity
  8
Defpoints
 62
     0
100
AcDbPoint
 10
1143.923361569114
 20
475.2151863949749
 30
0.0
  0
POINT
  5
21FB
330
218F
100
AcDbEntity
  8
Defpoints
 62
     0
100
AcDbPoint
 10
1143.923361569114
 20
428.5591554016223
 30
0.0
  0
ENDBLK
  5
219A
330
218F
100
AcDbEntity
  8
0
100
AcDbBlockEnd
  0
BLOCK
  5
21A6
330
219C
100
AcDbEntity
  8
0
100
AcDbBlockBegin
  2
*D18
 70
     1
 10
0.0
 20
0.0
 30
0.0
  3
*D18
  1

  0
LINE
  5
2371
330
219C
100
AcDbEntity
  8
cotes
 62
     0
370
    -2
100
AcDbLine
 10
657.4882504332324
 20
602.5797910361064
 30
0.0
 11
627.0631727959744
 21
537.2551976830314
 31
0.0
  0
LINE
  5
2372
330
219C
100
AcDbEntity
  8
cotes
 62
     0
370
    -2
100
AcDbLine
 10
932.3296628561573
 20
474.5717793259574
 30
0.0
 11
901.9045852188993
 21
409.2471859728824
 31
0.0
  0
LINE
  5
2373
330
219C
100
AcDbEntity
  8
cotes
 62
     0
370
    -2
100
AcDbLine
 10
629.857179967165
 20
537.3328116465625
 30
0.0
 11
900.16608974536
 21
411.4358233317163
 31
0.0
  0
SOLID
  5
2374
330
219C
100
AcDbEntity
  8
cotes
 62
     0
100
AcDbTrace
 10
630.0330985834403
 20
537.71052020029
 30
0.0
 11
629.6812613508897
 21
536.955103092835
 31
0.0
 12
627.5909286448
 22
538.388323344214
 32
0.0
 13
627.5909286448
 23
538.388323344214
 33
0.0
  0
SOLID
  5
2375
330
219C
100
AcDbEntity
  8
cotes
 62
     0
100
AcDbTrace
 10
900.3420083616351
 20
411.8135318854439
 30
0.0
 11
899.9901711290847
 21
411.0581147779889
 31
0.0
 12
902.4323410677251
 22
410.3803116340649
 32
0.0
 13
902.4323410677251
 23
410.3803116340649
 33
0.0
  0
MTEXT
  5
2376
330
219C
100
AcDbEntity
  8
cotes
 62
     0
100
AcDbMText
 10
767.7383734085286
 20
480.2388000719157
 30
0.0
 40
10.0
 41
0.0
 71
     5
 72
     1
  1
303,19
 11
0.9065005289459909
 21
-0.4222046790605697
 31
0.0
 73
     1
 44
1.0
  0
POINT
  5
2377
330
219C
100
AcDbEntity
  8
Defpoints
 62
     0
100
AcDbPoint
 10
657.7521283576452
 20
603.1463538666977
 30
0.0
  0
POINT
  5
2378
330
219C
100
AcDbEntity
  8
Defpoints
 62
     0
100
AcDbPoint
 10
932.5935407805701
 20
475.1383421565487
 30
0.0
  0
POINT
  5
2379
330
219C
100
AcDbEntity
  8
Defpoints
 62
     0
100
AcDbPoint
 10
902.4323410677251
 20
410.3803116340649
 30
0.0
  0
ENDBLK
  5
21A7
330
219C
100
AcDbEntity
  8
0
100
AcDbBlockEnd
  0
BLOCK
  5
21BC
330
21B2
100
AcDbEntity
  8
0
100
AcDbBlockBegin
  2
*D19
 70
     1
 10
0.0
 20
0.0
 30
0.0
  3
*D19
  1

  0
LINE
  5
21BE
330
21B2
100
AcDbEntity
  8
cotes
 62
     0
370
    -2
100
AcDbLine
 10
932.5935407805699
 20
474.5133421565486
 30
0.0
 11
932.5935407805699
 21
413.4227348668046
 31
0.0
  0
LINE
  5
21BF
330
21B2
100
AcDbEntity
  8
cotes
 62
     0
370
    -2
100
AcDbLine
 10
1143.923361569114
 20
474.5901863949749
 30
0.0
 11
1143.923361569114
 21
413.4227348668046
 31
0.0
  0
LINE
  5
21C0
330
21B2
100
AcDbEntity
  8
cotes
 62
     0
370
    -2
100
AcDbLine
 10
935.09354078057
 20
414.6727348668045
 30
0.0
 11
1141.423361569114
 21
414.6727348668045
 31
0.0
  0
SOLID
  5
21C1
330
21B2
100
AcDbEntity
  8
cotes
 62
     0
100
AcDbTrace
 10
935.09354078057
 20
415.0894015334713
 30
0.0
 11
935.09354078057
 21
414.2560682001379
 31
0.0
 12
932.5935407805699
 22
414.6727348668045
 32
0.0
 13
932.5935407805699
 23
414.6727348668045
 33
0.0
  0
SOLID
  5
21C2
330
21B2
100
AcDbEntity
  8
cotes
 62
     0
100
AcDbTrace
 10
1141.423361569114
 20
415.0894015334713
 30
0.0
 11
1141.423361569114
 21
414.2560682001379
 31
0.0
 12
1143.923361569114
 22
414.6727348668045
 32
0.0
 13
1143.923361569114
 23
414.6727348668045
 33
0.0
  0
MTEXT
  5
21C3
330
21B2
100
AcDbEntity
  8
cotes
 62
     0
100
AcDbMText
 10
1038.258451174842
 20
421.1310682001379
 30
0.0
 40
10.0
 41
0.0
 71
     5
 72
     1
  1
211,33
 73
     1
 44
1.0
  0
POINT
  5
21C4
330
21B2
100
AcDbEntity
  8
Defpoints
 62
     0
100
AcDbPoint
 10
932.5935407805699
 20
475.1383421565486
 30
0.0
  0
POINT
  5
21C5
330
21B2
100
AcDbEntity
  8
Defpoints
 62
     0
100
AcDbPoint
 10
1143.923361569114
 20
475.2151863949749
 30
0.0
  0
POINT
  5
21C6
330
21B2
100
AcDbEntity
  8
Defpoints
 62
     0
100
AcDbPoint
 10
1143.923361569114
 20
414.6727348668045
 30
0.0
  0
ENDBLK
  5
21BD
330
21B2
100
AcDbEntity
  8
0
100
AcDbBlockEnd
  0
BLOCK
  5
21E8
330
21DE
100
AcDbEntity
  8
0
100
AcDbBlockBegin
  2
*D20
 70
     1
 10
0.0
 20
0.0
 30
0.0
  3
*D20
  1

  0
LINE
  5
21EA
330
21DE
100
AcDbEntity
  8
cotes
 62
     0
370
    -2
100
AcDbLine
 10
932.5935407805699
 20
474.5133421565486
 30
0.0
 11
932.5935407805699
 21
427.3091554016223
 31
0.0
  0
LINE
  5
21EB
330
21DE
100
AcDbEntity
  8
cotes
 62
     0
370
    -2
100
AcDbLine
 10
1005.040985835376
 20
474.5133421565486
 30
0.0
 11
1005.040985835376
 21
427.3091554016223
 31
0.0
  0
LINE
  5
21EC
330
21DE
100
AcDbEntity
  8
cotes
 62
     0
370
    -2
100
AcDbLine
 10
935.09354078057
 20
428.5591554016223
 30
0.0
 11
1002.540985835376
 21
428.5591554016223
 31
0.0
  0
SOLID
  5
21ED
330
21DE
100
AcDbEntity
  8
cotes
 62
     0
100
AcDbTrace
 10
935.09354078057
 20
428.975822068289
 30
0.0
 11
935.09354078057
 21
428.1424887349556
 31
0.0
 12
932.5935407805699
 22
428.5591554016223
 32
0.0
 13
932.5935407805699
 23
428.5591554016223
 33
0.0
  0
SOLID
  5
21EE
330
21DE
100
AcDbEntity
  8
cotes
 62
     0
100
AcDbTrace
 10
1002.540985835376
 20
428.975822068289
 30
0.0
 11
1002.540985835376
 21
428.1424887349556
 31
0.0
 12
1005.040985835376
 22
428.5591554016223
 32
0.0
 13
1005.040985835376
 23
428.5591554016223
 33
0.0
  0
MTEXT
  5
21EF
330
21DE
100
AcDbEntity
  8
cotes
 62
     0
100
AcDbMText
 10
968.8172633079732
 20
435.0174887349556
 30
0.0
 40
10.0
 41
0.0
 71
     5
 72
     1
  1
72,45
 73
     1
 44
1.0
  0
POINT
  5
21F0
330
21DE
100
AcDbEntity
  8
Defpoints
 62
     0
100
AcDbPoint
 10
932.5935407805699
 20
475.1383421565486
 30
0.0
  0
POINT
  5
21F1
330
21DE
100
AcDbEntity
  8
Defpoints
 62
     0
100
AcDbPoint
 10
1005.040985835376
 20
475.1383421565486
 30
0.0
  0
POINT
  5
21F2
330
21DE
100
AcDbEntity
  8
Defpoints
 62
     0
100
AcDbPoint
 10
1005.040985835376
 20
428.5591554016223
 30
0.0
  0
ENDBLK
  5
21E9
330
21DE
100
AcDbEntity
  8
0
100
AcDbBlockEnd
  0
BLOCK
  5
2207
330
21FD
100
AcDbEntity
  8
0
100
AcDbBlockBegin
  2
*D21
 70
     1
 10
0.0
 20
0.0
 30
0.0
  3
*D21
  1

  0
LINE
  5
2209
330
21FD
100
AcDbEntity
  8
cotes
 62
     0
370
    -2
100
AcDbLine
 10
932.8576559841634
 20
475.5664522567974
 30
0.0
 11
966.2606417877045
 21
547.2063898096784
 31
0.0
  0
LINE
  5
220A
330
21FD
100
AcDbEntity
  8
cotes
 62
     0
370
    -2
100
AcDbLine
 10
619.1245903474846
 20
621.8482818553769
 30
0.0
 11
652.5275761510259
 21
693.4882194082581
 31
0.0
  0
LINE
  5
220B
330
21FD
100
AcDbEntity
  8
cotes
 62
     0
370
    -2
100
AcDbLine
 10
963.4666023533283
 20
547.1299461104567
 30
0.0
 11
654.2651547710289
 21
691.2988540802903
 31
0.0
  0
SOLID
  5
220C
330
21FD
100
AcDbEntity
  8
cotes
 62
     0
100
AcDbTrace
 10
963.6426791557237
 20
547.5075809483216
 30
0.0
 11
963.2905255509328
 21
546.7523112725919
 31
0.0
 12
965.7324113805179
 22
546.0734852960838
 32
0.0
 13
965.7324113805179
 23
546.0734852960838
 33
0.0
  0
SOLID
  5
220D
330
21FD
100
AcDbEntity
  8
cotes
 62
     0
100
AcDbTrace
 10
654.4412315734243
 20
691.6764889181552
 30
0.0
 11
654.0890779686334
 21
690.9212192424253
 31
0.0
 12
651.9993457438393
 22
692.3553148946633
 32
0.0
 13
651.9993457438393
 23
692.3553148946633
 33
0.0
  0
MTEXT
  5
220E
330
21FD
100
AcDbEntity
  8
cotes
 62
     0
100
AcDbMText
 10
811.5950689993091
 20
625.0677400822802
 30
0.0
 40
10.0
 41
0.0
 71
     5
 72
     1
  1
346,16
 11
0.9063236108758689
 21
-0.4225843257492249
 31
0.0
 73
     1
 44
1.0
  0
POINT
  5
220F
330
21FD
100
AcDbEntity
  8
Defpoints
 62
     0
100
AcDbPoint
 10
932.5935407805699
 20
474.9999999999999
 30
0.0
  0
POINT
  5
2210
330
21FD
100
AcDbEntity
  8
Defpoints
 62
     0
100
AcDbPoint
 10
618.8604751438913
 20
621.2818295985795
 30
0.0
  0
POINT
  5
2211
330
21FD
100
AcDbEntity
  8
Defpoints
 62
     0
100
AcDbPoint
 10
651.9993457438393
 20
692.3553148946633
 30
0.0
  0
ENDBLK
  5
2208
330
21FD
100
AcDbEntity
  8
0
100
AcDbBlockEnd
  0
BLOCK
  5
221E
330
2213
100
AcDbEntity
  8
0
100
AcDbBlockBegin
  2
*D22
 70
     1
 10
0.0
 20
0.0
 30
0.0
  3
*D22
  1

  0
LINE
  5
2214
330
2213
100
AcDbEntity
  8
cotes
 62
     0
370
    -2
100
AcDbLine
 10
1243.133035358652
 20
647.4217388090535
 30
0.0
 11
1254.642114663607
 21
630.9850701402451
 31
0.0
  0
ARC
  5
2215
330
2213
100
AcDbEntity
  8
cotes
 62
     0
370
    -2
100
AcDbCircle
 10
1219.533597267179
 20
681.1252292796241
 30
0.0
 40
59.95983215380944
100
AcDbArc
 50
252.3890965201894
 51
302.6109034798106
  0
SOLID
  5
2216
330
2213
100
AcDbEntity
  8
cotes
 62
     0
100
AcDbTrace
 10
1201.258358456697
 20
623.5811036272577
 30
0.0
 11
1201.526988263544
 21
624.3699524539144
 31
0.0
 12
1199.02612688015
 22
624.7814174611278
 32
0.0
 13
1199.02612688015
 23
624.7814174611278
 33
0.0
  0
SOLID
  5
2217
330
2213
100
AcDbEntity
  8
cotes
 62
     0
100
AcDbTrace
 10
1251.615992500239
 20
630.9642949633412
 30
0.0
 11
1252.07963806843
 21
630.2718520187299
 31
0.0
 12
1253.925144118168
 22
632.0090101956063
 32
0.0
 13
1253.925144118168
 23
632.0090101956063
 33
0.0
  0
MTEXT
  5
2218
330
2213
100
AcDbEntity
  8
cotes
 62
     0
100
AcDbMText
 10
1227.115189233957
 20
623.5373209169694
 30
0.0
 40
2.5
 41
0.0
 71
     5
 72
     1
  1
55°
 11
0.9914448613738105
 21
0.1305261922200523
 31
0.0
 73
     1
 44
1.0
  0
POINT
  5
2219
330
2213
100
AcDbEntity
  8
Defpoints
 62
     0
100
AcDbPoint
 10
1217.789682413102
 20
621.1907631278786
 30
0.0
  0
POINT
  5
221A
330
2213
100
AcDbEntity
  8
Defpoints
 62
     0
100
AcDbPoint
 10
1188.371626944089
 20
725.6291350827019
 30
0.0
  0
POINT
  5
221B
330
2213
100
AcDbEntity
  8
Defpoints
 62
     0
100
AcDbPoint
 10
1227.257893013785
 20
702.3475574246127
 30
0.0
  0
POINT
  5
221C
330
2213
100
AcDbEntity
  8
Defpoints
 62
     0
100
AcDbPoint
 10
1144.5101492781
 20
474.9999999999999
 30
0.0
  0
POINT
  5
221D
330
2213
100
AcDbEntity
  8
Defpoints
 62
     0
100
AcDbPoint
 10
1242.774550085933
 20
647.9337088367341
 30
0.0
  0
ENDBLK
  5
221F
330
2213
100
AcDbEntity
  8
0
100
AcDbBlockEnd
  0
BLOCK
  5
222C
330
2222
100
AcDbEntity
  8
0
100
AcDbBlockBegin
  2
*D23
 70
     1
 10
0.0
 20
0.0
 30
0.0
  3
*D23
  1

  0
LINE
  5
24E8
330
2222
100
AcDbEntity
  8
cotes
 62
     0
370
    -2
100
AcDbLine
 10
1242.262580058252
 20
647.5752235640149
 30
0.0
 11
1186.912274624219
 21
608.8185224568958
 31
0.0
  0
LINE
  5
24E9
330
2222
100
AcDbEntity
  8
cotes
 62
     0
370
    -2
100
AcDbLine
 10
1247.998344421763
 20
639.3837031211248
 30
0.0
 11
1192.64803898773
 21
600.6270020140057
 31
0.0
  0
LINE
  5
24EA
330
2222
100
AcDbEntity
  8
cotes
 62
     0
370
    -2
100
AcDbLine
 10
1189.370155770458
 20
607.4876128916121
 30
0.0
 11
1192.238037952214
 21
603.391852670167
 31
0.0
  0
SOLID
  5
24EB
330
2222
100
AcDbEntity
  8
cotes
 62
     0
100
AcDbTrace
 10
1189.711469122245
 20
607.7266030734251
 30
0.0
 11
1189.028842418671
 21
607.2486227097991
 31
0.0
 12
1187.936214679581
 22
609.5354930023346
 32
0.0
 13
1187.936214679581
 23
609.5354930023346
 33
0.0
  0
SOLID
  5
24EC
330
2222
100
AcDbEntity
  8
cotes
 62
     0
100
AcDbTrace
 10
1192.579351304001
 20
603.63084285198
 30
0.0
 11
1191.896724600426
 21
603.1528624883541
 31
0.0
 12
1193.671979043091
 22
601.3439725594444
 32
0.0
 13
1193.671979043091
 23
601.3439725594444
 33
0.0
  0
MTEXT
  5
24ED
330
2222
100
AcDbEntity
  8
cotes
 62
     0
100
AcDbMText
 10
1192.340006944378
 20
606.5151885990478
 30
0.0
 40
2.5
 41
0.0
 71
     5
 72
     1
  1
10
 11
0.5735764363510394
 21
-0.8191520442889965
 31
0.0
 73
     1
 44
1.0
  0
POINT
  5
24EE
330
2222
100
AcDbEntity
  8
Defpoints
 62
     0
100
AcDbPoint
 10
1242.774550085933
 20
647.9337088367343
 30
0.0
  0
POINT
  5
24EF
330
2222
100
AcDbEntity
  8
Defpoints
 62
     0
100
AcDbPoint
 10
1248.510314449444
 20
639.7421883938442
 30
0.0
  0
POINT
  5
24F0
330
2222
100
AcDbEntity
  8
Defpoints
 62
     0
100
AcDbPoint
 10
1193.671979043091
 20
601.3439725594444
 30
0.0
  0
ENDBLK
  5
222D
330
2222
100
AcDbEntity
  8
0
100
AcDbBlockEnd
  0
BLOCK
  5
2255
330
224B
100
AcDbEntity
  8
0
100
AcDbBlockBegin
  2
*D24
 70
     1
 10
0.0
 20
0.0
 30
0.0
  3
*D24
  1

  0
LINE
  5
224C
330
224B
100
AcDbEntity
  8
0
 62
     0
370
    -2
100
AcDbLine
 10
979.6866032059481
 20
499.8647252412886
 30
0.0
 11
1002.874368941504
 21
494.7241213391012
 31
0.0
  0
LINE
  5
224D
330
224B
100
AcDbEntity
  8
0
 62
     0
370
    -2
100
AcDbLine
 10
966.6825297860183
 20
441.2071406837646
 30
0.0
 11
989.8702955215743
 21
436.0665367815771
 31
0.0
  0
LINE
  5
224E
330
224B
100
AcDbEntity
  8
0
 62
     0
370
    -2
100
AcDbLine
 10
1001.112899897758
 20
492.5539308387239
 30
0.0
 11
989.1910245475196
 21
438.7778263167996
 31
0.0
  0
SOLID
  5
224F
330
224B
100
AcDbEntity
  8
0
 62
     0
100
AcDbTrace
 10
1000.706109894792
 20
492.6441140111982
 30
0.0
 11
1001.519689900725
 21
492.4637476662497
 31
0.0
 12
1001.653998932604
 22
494.9946708565238
 32
0.0
 13
1001.653998932604
 23
494.9946708565238
 33
0.0
  0
SOLID
  5
2250
330
224B
100
AcDbEntity
  8
0
 62
     0
100
AcDbTrace
 10
988.784234544553
 20
438.8680094892738
 30
0.0
 11
989.5978145504862
 21
438.6876431443254
 31
0.0
 12
988.6499255126743
 22
436.3370862989998
 32
0.0
 13
988.6499255126743
 23
436.3370862989998
 33
0.0
  0
MTEXT
  5
2251
330
224B
100
AcDbEntity
  8
0
 62
     0
100
AcDbMText
 10
993.118012207806
 20
466.1167944401329
 30
0.0
 40
2.5
 41
0.0
 71
     5
 72
     1
  1
60,08
 11
0.2164396139380975
 21
0.9762960071199346
 31
0.0
 73
     1
 44
1.0
  0
POINT
  5
2252
330
224B
100
AcDbEntity
  8
Defpoints
 62
     0
100
AcDbPoint
 10
979.0764182014981
 20
499.9999999999999
 30
0.0
  0
POINT
  5
2253
330
224B
100
AcDbEntity
  8
Defpoints
 62
     0
100
AcDbPoint
 10
966.0723447815685
 20
441.3424154424759
 30
0.0
  0
POINT
  5
2254
330
224B
100
AcDbEntity
  8
Defpoints
 62
     0
100
AcDbPoint
 10
988.6499255126743
 20
436.3370862989998
 30
0.0
  0
ENDBLK
  5
2256
330
224B
100
AcDbEntity
  8
0
100
AcDbBlockEnd
  0
BLOCK
  5
2266
330
225C
100
AcDbEntity
  8
0
100
AcDbBlockBegin
  2
*D25
 70
     1
 10
0.0
 20
0.0
 30
0.0
  3
*D25
  1

  0
LINE
  5
225D
330
225C
100
AcDbEntity
  8
0
 62
     0
370
    -2
100
AcDbLine
 10
1195.293389532583
 20
473.3015427267613
 30
0.0
 11
1207.036057508622
 21
481.5238473622774
 31
0.0
  0
LINE
  5
225E
330
225C
100
AcDbEntity
  8
0
 62
     0
370
    -2
100
AcDbLine
 10
1144.218110843199
 20
546.2446001808027
 30
0.0
 11
1155.960778819237
 21
554.4669048163188
 31
0.0
  0
LINE
  5
225F
330
225C
100
AcDbEntity
  8
0
 62
     0
370
    -2
100
AcDbLine
 10
1204.578176362383
 20
482.8547569275611
 30
0.0
 11
1156.370779854754
 21
551.7020541601576
 31
0.0
  0
SOLID
  5
2260
330
225C
100
AcDbEntity
  8
0
 62
     0
100
AcDbTrace
 10
1204.91948971417
 20
483.0937471093741
 30
0.0
 11
1204.236863010596
 21
482.6157667457481
 31
0.0
 12
1206.01211745326
 22
480.8068768168386
 32
0.0
 13
1206.01211745326
 23
480.8068768168386
 33
0.0
  0
SOLID
  5
2261
330
225C
100
AcDbEntity
  8
0
 62
     0
100
AcDbTrace
 10
1156.712093206541
 20
551.9410443419707
 30
0.0
 11
1156.029466502967
 21
551.4630639783447
 31
0.0
 12
1154.936838763876
 22
553.7499342708801
 32
0.0
 13
1154.936838763876
 23
553.7499342708801
 33
0.0
  0
MTEXT
  5
2262
330
225C
100
AcDbEntity
  8
0
 62
     0
100
AcDbMText
 10
1182.181044867504
 20
518.4733564529238
 30
0.0
 40
2.5
 41
0.0
 71
     5
 72
     1
  1
89,05
 11
0.5735764363510478
 21
-0.8191520442889906
 31
0.0
 73
     1
 44
1.0
  0
POINT
  5
2263
330
225C
100
AcDbEntity
  8
Defpoints
 62
     0
100
AcDbPoint
 10
1194.781419504902
 20
472.9430574540418
 30
0.0
  0
POINT
  5
2264
330
225C
100
AcDbEntity
  8
Defpoints
 62
     0
100
AcDbPoint
 10
1143.706140815518
 20
545.8861149080832
 30
0.0
  0
POINT
  5
2265
330
225C
100
AcDbEntity
  8
Defpoints
 62
     0
100
AcDbPoint
 10
1154.936838763876
 20
553.7499342708801
 30
0.0
  0
ENDBLK
  5
2267
330
225C
100
AcDbEntity
  8
0
100
AcDbBlockEnd
  0
BLOCK
  5
2273
330
2269
100
AcDbEntity
  8
0
100
AcDbBlockBegin
  2
*D26
 70
     1
 10
0.0
 20
0.0
 30
0.0
  3
*D26
  1

  0
LINE
  5
226A
330
2269
100
AcDbEntity
  8
cotes
 62
     0
370
    -2
100
AcDbLine
 10
1144.5101492781
 20
474.375
 30
0.0
 11
1144.5101492781
 21
448.7499999999999
 31
0.0
  0
LINE
  5
226B
330
2269
100
AcDbEntity
  8
cotes
 62
     0
370
    -2
100
AcDbLine
 10
1095.681473107322
 20
474.3717047203084
 30
0.0
 11
1095.681473107322
 21
448.7499999999999
 31
0.0
  0
LINE
  5
226C
330
2269
100
AcDbEntity
  8
cotes
 62
     0
370
    -2
100
AcDbLine
 10
1142.0101492781
 20
450.0
 30
0.0
 11
1098.181473107322
 21
450.0
 31
0.0
  0
SOLID
  5
226D
330
2269
100
AcDbEntity
  8
cotes
 62
     0
100
AcDbTrace
 10
1142.0101492781
 20
450.4166666666667
 30
0.0
 11
1142.0101492781
 21
449.5833333333333
 31
0.0
 12
1144.5101492781
 22
450.0
 32
0.0
 13
1144.5101492781
 23
450.0
 33
0.0
  0
SOLID
  5
226E
330
2269
100
AcDbEntity
  8
cotes
 62
     0
100
AcDbTrace
 10
1098.181473107322
 20
450.4166666666667
 30
0.0
 11
1098.181473107322
 21
449.5833333333333
 31
0.0
 12
1095.681473107322
 22
450.0
 32
0.0
 13
1095.681473107322
 23
450.0
 33
0.0
  0
MTEXT
  5
226F
330
2269
100
AcDbEntity
  8
cotes
 62
     0
100
AcDbMText
 10
1120.095811192711
 20
452.0833333333333
 30
0.0
 40
2.5
 41
0.0
 71
     5
 72
     1
  1
48,83
 73
     1
 44
1.0
  0
POINT
  5
2270
330
2269
100
AcDbEntity
  8
Defpoints
 62
     0
100
AcDbPoint
 10
1144.5101492781
 20
475.0
 30
0.0
  0
POINT
  5
2271
330
2269
100
AcDbEntity
  8
Defpoints
 62
     0
100
AcDbPoint
 10
1095.681473107322
 20
474.9967047203083
 30
0.0
  0
POINT
  5
2272
330
2269
100
AcDbEntity
  8
Defpoints
 62
     0
100
AcDbPoint
 10
1095.681473107322
 20
450.0
 30
0.0
  0
ENDBLK
  5
2274
330
2269
100
AcDbEntity
  8
0
100
AcDbBlockEnd
  0
BLOCK
  5
2280
330
2276
100
AcDbEntity
  8
0
100
AcDbBlockBegin
  2
*D27
 70
     1
 10
0.0
 20
0.0
 30
0.0
  3
*D27
  1

  0
LINE
  5
2277
330
2276
100
AcDbEntity
  8
cotes
 62
     0
370
    -2
100
AcDbLine
 10
938.1052376289181
 20
500.625
 30
0.0
 11
938.1052376289181
 21
504.0023666883782
 31
0.0
  0
LINE
  5
2278
330
2276
100
AcDbEntity
  8
cotes
 62
     0
370
    -2
100
AcDbLine
 10
979.0764182014983
 20
500.625
 30
0.0
 11
979.0764182014983
 21
504.0023666883782
 31
0.0
  0
LINE
  5
2279
330
2276
100
AcDbEntity
  8
cotes
 62
     0
370
    -2
100
AcDbLine
 10
940.605237628918
 20
502.7523666883782
 30
0.0
 11
976.5764182014985
 21
502.7523666883782
 31
0.0
  0
SOLID
  5
227A
330
2276
100
AcDbEntity
  8
cotes
 62
     0
100
AcDbTrace
 10
940.605237628918
 20
503.1690333550449
 30
0.0
 11
940.605237628918
 21
502.3357000217115
 31
0.0
 12
938.1052376289181
 22
502.7523666883782
 32
0.0
 13
938.1052376289181
 23
502.7523666883782
 33
0.0
  0
SOLID
  5
227B
330
2276
100
AcDbEntity
  8
cotes
 62
     0
100
AcDbTrace
 10
976.5764182014985
 20
503.1690333550449
 30
0.0
 11
976.5764182014985
 21
502.3357000217115
 31
0.0
 12
979.0764182014983
 22
502.7523666883782
 32
0.0
 13
979.0764182014983
 23
502.7523666883782
 33
0.0
  0
MTEXT
  5
227C
330
2276
100
AcDbEntity
  8
cotes
 62
     0
100
AcDbMText
 10
958.5908279152082
 20
504.8357000217115
 30
0.0
 40
2.5
 41
0.0
 71
     5
 72
     1
  1
40,97
 73
     1
 44
1.0
  0
POINT
  5
227D
330
2276
100
AcDbEntity
  8
Defpoints
 62
     0
100
AcDbPoint
 10
938.1052376289181
 20
500.0
 30
0.0
  0
POINT
  5
227E
330
2276
100
AcDbEntity
  8
Defpoints
 62
     0
100
AcDbPoint
 10
979.0764182014983
 20
500.0
 30
0.0
  0
POINT
  5
227F
330
2276
100
AcDbEntity
  8
Defpoints
 62
     0
100
AcDbPoint
 10
979.0764182014983
 20
502.7523666883782
 30
0.0
  0
ENDBLK
  5
2281
330
2276
100
AcDbEntity
  8
0
100
AcDbBlockEnd
  0
BLOCK
  5
22A2
330
2298
100
AcDbEntity
  8
0
100
AcDbBlockBegin
  2
*D28
 70
     1
 10
0.0
 20
0.0
 30
0.0
  3
*D28
  1

  0
LINE
  5
2299
330
2298
100
AcDbEntity
  8
cotes
 62
     0
370
    -2
100
AcDbLine
 10
1144.5101492781
 20
473.7499999999998
 30
0.0
 11
1144.5101492781
 21
428.6190856308112
 31
0.0
  0
LINE
  5
229A
330
2298
100
AcDbEntity
  8
cotes
 62
     0
370
    -2
100
AcDbLine
 10
1386.448366516064
 20
473.7499999999999
 30
0.0
 11
1386.448366516064
 21
428.6190856308112
 31
0.0
  0
LINE
  5
229B
330
2298
100
AcDbEntity
  8
cotes
 62
     0
370
    -2
100
AcDbLine
 10
1147.0101492781
 20
429.8690856308112
 30
0.0
 11
1383.948366516064
 21
429.8690856308112
 31
0.0
  0
SOLID
  5
229C
330
2298
100
AcDbEntity
  8
cotes
 62
     0
100
AcDbTrace
 10
1147.0101492781
 20
430.2857522974779
 30
0.0
 11
1147.0101492781
 21
429.4524189641445
 31
0.0
 12
1144.5101492781
 22
429.8690856308112
 32
0.0
 13
1144.5101492781
 23
429.8690856308112
 33
0.0
  0
SOLID
  5
229D
330
2298
100
AcDbEntity
  8
cotes
 62
     0
100
AcDbTrace
 10
1383.948366516064
 20
430.2857522974779
 30
0.0
 11
1383.948366516064
 21
429.4524189641445
 31
0.0
 12
1386.448366516064
 22
429.8690856308112
 32
0.0
 13
1386.448366516064
 23
429.8690856308112
 33
0.0
  0
MTEXT
  5
229E
330
2298
100
AcDbEntity
  8
cotes
 62
     0
100
AcDbMText
 10
1265.479257897082
 20
431.9524189641446
 30
0.0
 40
2.5
 41
0.0
 71
     5
 72
     1
  1
241,94
 73
     1
 44
1.0
  0
POINT
  5
229F
330
2298
100
AcDbEntity
  8
Defpoints
 62
     0
100
AcDbPoint
 10
1144.5101492781
 20
474.3749999999998
 30
0.0
  0
POINT
  5
22A0
330
2298
100
AcDbEntity
  8
Defpoints
 62
     0
100
AcDbPoint
 10
1386.448366516064
 20
474.3749999999999
 30
0.0
  0
POINT
  5
22A1
330
2298
100
AcDbEntity
  8
Defpoints
 62
     0
100
AcDbPoint
 10
1386.448366516064
 20
429.8690856308112
 30
0.0
  0
ENDBLK
  5
22A3
330
2298
100
AcDbEntity
  8
0
100
AcDbBlockEnd
  0
BLOCK
  5
22AF
330
22A5
100
AcDbEntity
  8
0
100
AcDbBlockBegin
  2
*D29
 70
     1
 10
0.0
 20
0.0
 30
0.0
  3
*D29
  1

  0
LINE
  5
22A6
330
22A5
100
AcDbEntity
  8
cotes
 62
     0
370
    -2
100
AcDbLine
 10
1143.347655542799
 20
546.398084935764
 30
0.0
 11
1112.995310551952
 21
589.7457259343903
 31
0.0
  0
LINE
  5
22A7
330
22A5
100
AcDbEntity
  8
cotes
 62
     0
370
    -2
100
AcDbLine
 10
1077.815491999679
 20
500.5119700276806
 30
0.0
 11
1047.463147008833
 21
543.8596110263071
 31
0.0
  0
LINE
  5
22A8
330
22A5
100
AcDbEntity
  8
cotes
 62
     0
370
    -2
100
AcDbLine
 10
1111.664400986669
 20
587.2878447881515
 30
0.0
 11
1050.227997664994
 21
544.2696120618235
 31
0.0
  0
SOLID
  5
22A9
330
22A5
100
AcDbEntity
  8
cotes
 62
     0
100
AcDbTrace
 10
1111.425410804856
 20
587.6291581399386
 30
0.0
 11
1111.903391168482
 21
586.9465314363644
 31
0.0
 12
1113.712281097391
 22
588.7217858790291
 32
0.0
 13
1113.712281097391
 23
588.7217858790291
 33
0.0
  0
SOLID
  5
22AA
330
22A5
100
AcDbEntity
  8
cotes
 62
     0
100
AcDbTrace
 10
1049.989007483181
 20
544.6109254136106
 30
0.0
 11
1050.466987846807
 21
543.9282987100364
 31
0.0
 12
1048.180117554272
 22
542.8356709709459
 32
0.0
 13
1048.180117554272
 23
542.8356709709459
 33
0.0
  0
MTEXT
  5
22AB
330
22A5
100
AcDbEntity
  8
cotes
 62
     0
100
AcDbMText
 10
1079.870743507673
 20
567.3146385080295
 30
0.0
 40
2.5
 41
0.0
 71
     5
 72
     1
  1
80
 11
0.8191520442889938
 21
0.5735764363510434
 31
0.0
 73
     1
 44
1.0
  0
POINT
  5
22AC
330
22A5
100
AcDbEntity
  8
Defpoints
 62
     0
100
AcDbPoint
 10
1143.706140815518
 20
545.8861149080832
 30
0.0
  0
POINT
  5
22AD
330
22A5
100
AcDbEntity
  8
Defpoints
 62
     0
100
AcDbPoint
 10
1078.173977272399
 20
500.0
 30
0.0
  0
POINT
  5
22AE
330
22A5
100
AcDbEntity
  8
Defpoints
 62
     0
100
AcDbPoint
 10
1048.180117554272
 20
542.8356709709459
 30
0.0
  0
ENDBLK
  5
22B0
330
22A5
100
AcDbEntity
  8
0
100
AcDbBlockEnd
  0
BLOCK
  5
22BC
330
22B2
100
AcDbEntity
  8
0
100
AcDbBlockBegin
  2
*D30
 70
     1
 10
0.0
 20
0.0
 30
0.0
  3
*D30
  1

  0
LINE
  5
22B3
330
22B2
100
AcDbEntity
  8
cotes
 62
     0
370
    -2
100
AcDbLine
 10
1127.004960822857
 20
499.3749999999998
 30
0.0
 11
1127.004960822857
 21
485.0599514606042
 31
0.0
  0
LINE
  5
22B4
330
22B2
100
AcDbEntity
  8
cotes
 62
     0
370
    -2
100
AcDbLine
 10
1078.173977272399
 20
499.375
 30
0.0
 11
1078.173977272399
 21
485.0599514606042
 31
0.0
  0
LINE
  5
22B5
330
22B2
100
AcDbEntity
  8
cotes
 62
     0
370
    -2
100
AcDbLine
 10
1124.504960822857
 20
486.3099514606042
 30
0.0
 11
1080.673977272399
 21
486.3099514606042
 31
0.0
  0
SOLID
  5
22B6
330
22B2
100
AcDbEntity
  8
cotes
 62
     0
100
AcDbTrace
 10
1124.504960822857
 20
486.7266181272709
 30
0.0
 11
1124.504960822857
 21
485.8932847939375
 31
0.0
 12
1127.004960822857
 22
486.3099514606042
 32
0.0
 13
1127.004960822857
 23
486.3099514606042
 33
0.0
  0
SOLID
  5
22B7
330
22B2
100
AcDbEntity
  8
cotes
 62
     0
100
AcDbTrace
 10
1080.673977272399
 20
486.7266181272709
 30
0.0
 11
1080.673977272399
 21
485.8932847939375
 31
0.0
 12
1078.173977272399
 22
486.3099514606042
 32
0.0
 13
1078.173977272399
 23
486.3099514606042
 33
0.0
  0
MTEXT
  5
22B8
330
22B2
100
AcDbEntity
  8
cotes
 62
     0
100
AcDbMText
 10
1102.589469047628
 20
488.3932847939375
 30
0.0
 40
2.5
 41
0.0
 71
     5
 72
     1
  1
48,83
 73
     1
 44
1.0
  0
POINT
  5
22B9
330
22B2
100
AcDbEntity
  8
Defpoints
 62
     0
100
AcDbPoint
 10
1127.004960822857
 20
499.9999999999999
 30
0.0
  0
POINT
  5
22BA
330
22B2
100
AcDbEntity
  8
Defpoints
 62
     0
100
AcDbPoint
 10
1078.173977272399
 20
500.0
 30
0.0
  0
POINT
  5
22BB
330
22B2
100
AcDbEntity
  8
Defpoints
 62
     0
100
AcDbPoint
 10
1078.173977272399
 20
486.3099514606042
 30
0.0
  0
ENDBLK
  5
22BD
330
22B2
100
AcDbEntity
  8
0
100
AcDbBlockEnd
  0
BLOCK
  5
22CA
330
22C0
100
AcDbEntity
  8
0
100
AcDbBlockBegin
  2
*D31
 70
     1
 10
0.0
 20
0.0
 30
0.0
  3
*D31
  1

  0
ARC
  5
22C1
330
22C0
100
AcDbEntity
  8
cotes
 62
     0
370
    -2
100
AcDbCircle
 10
606.2522776850853
 20
654.7455766032133
 30
0.0
 40
54.63275598166383
100
AcDbArc
 50
293.267085154959
 51
332.377910985584
  0
SOLID
  5
22C2
330
22C0
100
AcDbEntity
  8
cotes
 62
     0
100
AcDbTrace
 10
627.9889792230334
 20
604.1694674021904
 30
0.0
 11
627.6773999605977
 21
604.9423598964382
 31
0.0
 12
625.5145121090722
 22
603.6211758620074
 32
0.0
 13
625.5145121090722
 23
603.6211758620074
 33
0.0
  0
SOLID
  5
22C3
330
22C0
100
AcDbEntity
  8
cotes
 62
     0
100
AcDbTrace
 10
654.2847594593314
 20
629.6004587178389
 30
0.0
 11
655.0317602976562
 21
629.2310887244899
 31
0.0
 12
655.7663698585404
 22
631.6567762361386
 32
0.0
 13
655.7663698585404
 23
631.6567762361386
 33
0.0
  0
MTEXT
  5
22C4
330
22C0
100
AcDbEntity
  8
cotes
 62
     0
100
AcDbMText
 10
642.1132735099111
 20
616.0497138440936
 30
0.0
 40
2.5
 41
0.0
 71
     5
 72
     1
  1
44°
 11
0.7334630148516624
 21
0.6797293622058049
 31
0.0
 73
     1
 44
1.0
  0
POINT
  5
22C5
330
22C0
100
AcDbEntity
  8
Defpoints
 62
     0
100
AcDbPoint
 10
637.9233155357641
 20
610.2294740378166
 30
0.0
  0
POINT
  5
22C6
330
22C0
100
AcDbEntity
  8
Defpoints
 62
     0
100
AcDbPoint
 10
606.2522776850853
 20
654.7455766032133
 30
0.0
  0
POINT
  5
22C7
330
22C0
100
AcDbEntity
  8
Defpoints
 62
     0
100
AcDbPoint
 10
938.1052376289181
 20
499.9999999999999
 30
0.0
  0
POINT
  5
22C8
330
22C0
100
AcDbEntity
  8
Defpoints
 62
     0
100
AcDbPoint
 10
606.2522776850853
 20
654.7455766032133
 30
0.0
  0
POINT
  5
22C9
330
22C0
100
AcDbEntity
  8
Defpoints
 62
     0
100
AcDbPoint
 10
631.4686726026974
 20
587.8180825939455
 30
0.0
  0
ENDBLK
  5
22CB
330
22C0
100
AcDbEntity
  8
0
100
AcDbBlockEnd
  0
BLOCK
  5
22DB
330
22D1
100
AcDbEntity
  8
0
100
AcDbBlockBegin
  2
*D32
 70
     1
 10
0.0
 20
0.0
 30
0.0
  3
*D32
  1

  0
LINE
  5
22D2
330
22D1
100
AcDbEntity
  8
cotes
 62
     0
370
    -2
100
AcDbLine
 10
829.3911277682969
 20
413.75
 30
0.0
 11
761.3905988235043
 21
413.75
 31
0.0
  0
LINE
  5
22D3
330
22D1
100
AcDbEntity
  8
cotes
 62
     0
370
    -2
100
AcDbLine
 10
829.3911277682969
 20
100.0
 30
0.0
 11
761.3905988235042
 21
100.0
 31
0.0
  0
LINE
  5
22D4
330
22D1
100
AcDbEntity
  8
cotes
 62
     0
370
    -2
100
AcDbLine
 10
762.6405988235043
 20
411.2499999999999
 30
0.0
 11
762.6405988235042
 21
102.5
 31
0.0
  0
SOLID
  5
22D5
330
22D1
100
AcDbEntity
  8
cotes
 62
     0
100
AcDbTrace
 10
762.2239321568376
 20
411.2499999999999
 30
0.0
 11
763.0572654901709
 21
411.2499999999999
 31
0.0
 12
762.6405988235043
 22
413.75
 32
0.0
 13
762.6405988235043
 23
413.75
 33
0.0
  0
SOLID
  5
22D6
330
22D1
100
AcDbEntity
  8
cotes
 62
     0
100
AcDbTrace
 10
762.2239321568375
 20
102.5
 30
0.0
 11
763.0572654901708
 21
102.5
 31
0.0
 12
762.6405988235042
 22
100.0
 32
0.0
 13
762.6405988235042
 23
100.0
 33
0.0
  0
MTEXT
  5
22D7
330
22D1
100
AcDbEntity
  8
cotes
 62
     0
100
AcDbMText
 10
760.5572654901708
 20
256.8750000000001
 30
0.0
 40
2.5
 41
0.0
 71
     5
 72
     1
  1
313,75
 11
0.0000000000000001
 21
1.0
 31
0.0
 73
     1
 44
1.0
  0
POINT
  5
22D8
330
22D1
100
AcDbEntity
  8
Defpoints
 62
     0
100
AcDbPoint
 10
830.0161277682969
 20
413.75
 30
0.0
  0
POINT
  5
22D9
330
22D1
100
AcDbEntity
  8
Defpoints
 62
     0
100
AcDbPoint
 10
830.0161277682969
 20
100.0
 30
0.0
  0
POINT
  5
22DA
330
22D1
100
AcDbEntity
  8
Defpoints
 62
     0
100
AcDbPoint
 10
762.6405988235042
 20
100.0
 30
0.0
  0
ENDBLK
  5
22DC
330
22D1
100
AcDbEntity
  8
0
100
AcDbBlockEnd
  0
BLOCK
  5
22F6
330
22EC
100
AcDbEntity
  8
0
100
AcDbBlockBegin
  2
*D33
 70
     1
 10
0.0
 20
0.0
 30
0.0
  3
*D33
  1

  0
LINE
  5
230E
330
22EC
100
AcDbEntity
  8
cotes
 62
     0
370
    -2
100
AcDbLine
 10
1386.448366516064
 20
474.3749999999999
 30
0.0
 11
1386.448366516064
 21
253.5152170248552
 31
0.0
  0
LINE
  5
230F
330
22EC
100
AcDbEntity
  8
cotes
 62
     0
370
    -2
100
AcDbLine
 10
657.7521283576452
 20
413.1249999999999
 30
0.0
 11
657.7521283576452
 21
253.5152170248552
 31
0.0
  0
LINE
  5
2310
330
22EC
100
AcDbEntity
  8
cotes
 62
     0
370
    -2
100
AcDbLine
 10
1383.948366516064
 20
254.7652170248552
 30
0.0
 11
660.2521283576452
 21
254.7652170248552
 31
0.0
  0
SOLID
  5
2311
330
22EC
100
AcDbEntity
  8
cotes
 62
     0
100
AcDbTrace
 10
1383.948366516064
 20
255.1818836915219
 30
0.0
 11
1383.948366516064
 21
254.3485503581885
 31
0.0
 12
1386.448366516064
 22
254.7652170248552
 32
0.0
 13
1386.448366516064
 23
254.7652170248552
 33
0.0
  0
SOLID
  5
2312
330
22EC
100
AcDbEntity
  8
cotes
 62
     0
100
AcDbTrace
 10
660.2521283576452
 20
255.1818836915219
 30
0.0
 11
660.2521283576452
 21
254.3485503581885
 31
0.0
 12
657.7521283576452
 22
254.7652170248552
 32
0.0
 13
657.7521283576452
 23
254.7652170248552
 33
0.0
  0
MTEXT
  5
2313
330
22EC
100
AcDbEntity
  8
cotes
 62
     0
100
AcDbMText
 10
1022.100247436855
 20
256.8485503581885
 30
0.0
 40
2.5
 41
0.0
 71
     5
 72
     1
  1
728,7
 73
     1
 44
1.0
  0
POINT
  5
2314
330
22EC
100
AcDbEntity
  8
Defpoints
 62
     0
100
AcDbPoint
 10
1386.448366516064
 20
474.9999999999999
 30
0.0
  0
POINT
  5
2315
330
22EC
100
AcDbEntity
  8
Defpoints
 62
     0
100
AcDbPoint
 10
657.7521283576452
 20
413.75
 30
0.0
  0
POINT
  5
2316
330
22EC
100
AcDbEntity
  8
Defpoints
 62
     0
100
AcDbPoint
 10
657.7521283576452
 20
254.7652170248552
 30
0.0
  0
ENDBLK
  5
22F7
330
22EC
100
AcDbEntity
  8
0
100
AcDbBlockEnd
  0
BLOCK
  5
2303
330
22F9
100
AcDbEntity
  8
0
100
AcDbBlockBegin
  2
*D34
 70
     1
 10
0.0
 20
0.0
 30
0.0
  3
*D34
  1

  0
LINE
  5
2305
330
22F9
100
AcDbEntity
  8
cotes
 62
     0
370
    -2
100
AcDbLine
 10
1386.448366516064
 20
474.3749999999999
 30
0.0
 11
1386.448366516064
 21
198.4726801275301
 31
0.0
  0
LINE
  5
2306
330
22F9
100
AcDbEntity
  8
cotes
 62
     0
370
    -2
100
AcDbLine
 10
300.0
 20
474.3750000000001
 30
0.0
 11
300.0
 21
198.4726801275301
 31
0.0
  0
LINE
  5
2307
330
22F9
100
AcDbEntity
  8
cotes
 62
     0
370
    -2
100
AcDbLine
 10
1383.948366516064
 20
199.7226801275301
 30
0.0
 11
302.4999999999999
 21
199.7226801275301
 31
0.0
  0
SOLID
  5
2308
330
22F9
100
AcDbEntity
  8
cotes
 62
     0
100
AcDbTrace
 10
1383.948366516064
 20
200.1393467941967
 30
0.0
 11
1383.948366516064
 21
199.3060134608634
 31
0.0
 12
1386.448366516064
 22
199.7226801275301
 32
0.0
 13
1386.448366516064
 23
199.7226801275301
 33
0.0
  0
SOLID
  5
2309
330
22F9
100
AcDbEntity
  8
cotes
 62
     0
100
AcDbTrace
 10
302.4999999999999
 20
200.1393467941967
 30
0.0
 11
302.4999999999999
 21
199.3060134608634
 31
0.0
 12
300.0
 22
199.7226801275301
 32
0.0
 13
300.0
 23
199.7226801275301
 33
0.0
  0
MTEXT
  5
230A
330
22F9
100
AcDbEntity
  8
cotes
 62
     0
100
AcDbMText
 10
843.2241832580324
 20
201.8060134608634
 30
0.0
 40
2.5
 41
0.0
 71
     5
 72
     1
  1
1086,45
 73
     1
 44
1.0
  0
POINT
  5
230B
330
22F9
100
AcDbEntity
  8
Defpoints
 62
     0
100
AcDbPoint
 10
1386.448366516064
 20
474.9999999999999
 30
0.0
  0
POINT
  5
230C
330
22F9
100
AcDbEntity
  8
Defpoints
 62
     0
100
AcDbPoint
 10
300.0
 20
475.0
 30
0.0
  0
POINT
  5
230D
330
22F9
100
AcDbEntity
  8
Defpoints
 62
     0
100
AcDbPoint
 10
300.0
 20
199.7226801275301
 30
0.0
  0
ENDBLK
  5
2304
330
22F9
100
AcDbEntity
  8
0
100
AcDbBlockEnd
  0
BLOCK
  5
2322
330
2318
100
AcDbEntity
  8
0
100
AcDbBlockBegin
  2
*D35
 70
     1
 10
0.0
 20
0.0
 30
0.0
  3
*D35
  1

  0
LINE
  5
2319
330
2318
100
AcDbEntity
  8
cotes
 62
     0
370
    -2
100
AcDbLine
 10
299.375
 20
475.0
 30
0.0
 11
264.4516775834708
 21
475.0
 31
0.0
  0
LINE
  5
231A
330
2318
100
AcDbEntity
  8
cotes
 62
     0
370
    -2
100
AcDbLine
 10
299.375
 20
416.2435537077213
 30
0.0
 11
264.4516775834708
 21
416.2435537077213
 31
0.0
  0
LINE
  5
231B
330
2318
100
AcDbEntity
  8
cotes
 62
     0
370
    -2
100
AcDbLine
 10
265.7016775834708
 20
472.5
 30
0.0
 11
265.7016775834708
 21
418.7435537077212
 31
0.0
  0
SOLID
  5
231C
330
2318
100
AcDbEntity
  8
cotes
 62
     0
100
AcDbTrace
 10
265.2850109168042
 20
472.5
 30
0.0
 11
266.1183442501375
 21
472.5
 31
0.0
 12
265.7016775834708
 22
475.0
 32
0.0
 13
265.7016775834708
 23
475.0
 33
0.0
  0
SOLID
  5
231D
330
2318
100
AcDbEntity
  8
cotes
 62
     0
100
AcDbTrace
 10
265.2850109168042
 20
418.7435537077212
 30
0.0
 11
266.1183442501375
 21
418.7435537077212
 31
0.0
 12
265.7016775834708
 22
416.2435537077213
 32
0.0
 13
265.7016775834708
 23
416.2435537077213
 33
0.0
  0
MTEXT
  5
231E
330
2318
100
AcDbEntity
  8
cotes
 62
     0
100
AcDbMText
 10
263.6183442501374
 20
445.6217768538606
 30
0.0
 40
2.5
 41
0.0
 71
     5
 72
     1
  1
58,76
 11
0.0000000000000001
 21
1.0
 31
0.0
 73
     1
 44
1.0
  0
POINT
  5
231F
330
2318
100
AcDbEntity
  8
Defpoints
 62
     0
100
AcDbPoint
 10
300.0
 20
475.0
 30
0.0
  0
POINT
  5
2320
330
2318
100
AcDbEntity
  8
Defpoints
 62
     0
100
AcDbPoint
 10
300.0
 20
416.2435537077213
 30
0.0
  0
POINT
  5
2321
330
2318
100
AcDbEntity
  8
Defpoints
 62
     0
100
AcDbPoint
 10
265.7016775834708
 20
416.2435537077213
 30
0.0
  0
ENDBLK
  5
2323
330
2318
100
AcDbEntity
  8
0
100
AcDbBlockEnd
  0
BLOCK
  5
2345
330
233B
100
AcDbEntity
  8
0
100
AcDbBlockBegin
  2
*D36
 70
     1
 10
0.0
 20
0.0
 30
0.0
  3
*D36
  1

  0
LINE
  5
233C
330
233B
100
AcDbEntity
  8
cotes
 62
     0
370
    -2
100
AcDbLine
 10
340.0
 20
405.6185537077213
 30
0.0
 11
340.0
 21
383.070988778013
 31
0.0
  0
LINE
  5
233D
330
233B
100
AcDbEntity
  8
cotes
 62
     0
370
    -2
100
AcDbLine
 10
275.0
 20
405.6185537077213
 30
0.0
 11
275.0
 21
383.070988778013
 31
0.0
  0
LINE
  5
233E
330
233B
100
AcDbEntity
  8
cotes
 62
     0
370
    -2
100
AcDbLine
 10
337.5
 20
384.3209887780131
 30
0.0
 11
277.4999999999999
 21
384.3209887780131
 31
0.0
  0
SOLID
  5
233F
330
233B
100
AcDbEntity
  8
cotes
 62
     0
100
AcDbTrace
 10
337.5
 20
384.7376554446798
 30
0.0
 11
337.5
 21
383.9043221113464
 31
0.0
 12
340.0
 22
384.3209887780131
 32
0.0
 13
340.0
 23
384.3209887780131
 33
0.0
  0
SOLID
  5
2340
330
233B
100
AcDbEntity
  8
cotes
 62
     0
100
AcDbTrace
 10
277.4999999999999
 20
384.7376554446798
 30
0.0
 11
277.4999999999999
 21
383.9043221113464
 31
0.0
 12
275.0
 22
384.3209887780131
 32
0.0
 13
275.0
 23
384.3209887780131
 33
0.0
  0
MTEXT
  5
2341
330
233B
100
AcDbEntity
  8
cotes
 62
     0
100
AcDbMText
 10
307.5
 20
386.195988778013
 30
0.0
 40
2.5
 41
0.0
 71
     5
 72
     1
  1
65
 73
     1
 44
1.0
  0
POINT
  5
2342
330
233B
100
AcDbEntity
  8
Defpoints
 62
     0
100
AcDbPoint
 10
340.0
 20
406.2435537077212
 30
0.0
  0
POINT
  5
2343
330
233B
100
AcDbEntity
  8
Defpoints
 62
     0
100
AcDbPoint
 10
275.0
 20
406.2435537077212
 30
0.0
  0
POINT
  5
2344
330
233B
100
AcDbEntity
  8
Defpoints
 62
     0
100
AcDbPoint
 10
275.0
 20
384.3209887780131
 30
0.0
  0
ENDBLK
  5
2346
330
233B
100
AcDbEntity
  8
0
100
AcDbBlockEnd
  0
BLOCK
  5
2363
330
2359
100
AcDbEntity
  8
0
100
AcDbBlockBegin
  2
*D37
 70
     1
 10
0.0
 20
0.0
 30
0.0
  3
*D37
  1

  0
LINE
  5
23AB
330
2359
100
AcDbEntity
  8
cotes
 62
     0
370
    -2
100
AcDbLine
 10
658.0162647712332
 20
603.7127962335955
 30
0.0
 11
676.5910159712909
 21
643.5464787288626
 31
0.0
  0
LINE
  5
23AC
330
2359
100
AcDbEntity
  8
cotes
 62
     0
370
    -2
100
AcDbLine
 10
839.2778221785631
 20
519.1891438854557
 30
0.0
 11
857.8525733786209
 21
559.0228263807228
 31
0.0
  0
LINE
  5
23AD
330
2359
100
AcDbEntity
  8
cotes
 62
     0
370
    -2
100
AcDbLine
 10
678.3285126117069
 20
641.3570483407152
 30
0.0
 11
855.0585310838535
 21
558.9464873012786
 31
0.0
  0
SOLID
  5
23AE
330
2359
100
AcDbEntity
  8
cotes
 62
     0
100
AcDbTrace
 10
678.5046035540988
 20
641.7346765853137
 30
0.0
 11
678.1524216693148
 21
640.9794200961166
 31
0.0
 12
676.062743144115
 22
642.4135939950669
 32
0.0
 13
676.062743144115
 23
642.4135939950669
 33
0.0
  0
SOLID
  5
23AF
330
2359
100
AcDbEntity
  8
cotes
 62
     0
100
AcDbTrace
 10
855.2346220262455
 20
559.3241155458772
 30
0.0
 11
854.8824401414615
 21
558.5688590566801
 31
0.0
 12
857.324300551445
 22
557.889941646927
 32
0.0
 13
857.324300551445
 23
557.889941646927
 33
0.0
  0
MTEXT
  5
23B0
330
2359
100
AcDbEntity
  8
cotes
 62
     0
100
AcDbMText
 10
767.4859310885437
 20
601.8510949216906
 30
0.0
 40
2.5
 41
0.0
 71
     5
 72
     1
  1
200
 11
0.9063077870366498
 21
-0.4226182617406998
 31
0.0
 73
     1
 44
1.0
  0
POINT
  5
23B1
330
2359
100
AcDbEntity
  8
Defpoints
 62
     0
100
AcDbPoint
 10
657.7521283576452
 20
603.1463538666976
 30
0.0
  0
POINT
  5
23B2
330
2359
100
AcDbEntity
  8
Defpoints
 62
     0
100
AcDbPoint
 10
839.0136857649752
 20
518.6227015185577
 30
0.0
  0
POINT
  5
23B3
330
2359
100
AcDbEntity
  8
Defpoints
 62
     0
100
AcDbPoint
 10
857.324300551445
 20
557.889941646927
 30
0.0
  0
ENDBLK
  5
2364
330
2359
100
AcDbEntity
  8
0
100
AcDbBlockEnd
  0
BLOCK
  5
2397
330
238D
100
AcDbEntity
  8
0
100
AcDbBlockBegin
  2
*D38
 70
     1
 10
0.0
 20
0.0
 30
0.0
  3
*D38
  1

  0
LINE
  5
23B4
330
238D
100
AcDbEntity
  8
cotes
 62
     0
370
    -2
100
AcDbLine
 10
647.4611466959307
 20
581.0502806507769
 30
0.0
 11
661.2801334109483
 21
610.6851932955621
 31
0.0
  0
LINE
  5
23B5
330
238D
100
AcDbEntity
  8
cotes
 62
     0
370
    -2
100
AcDbLine
 10
797.6189110675827
 20
511.0305651928416
 30
0.0
 11
811.4378977826003
 21
540.6654778376267
 31
0.0
  0
LINE
  5
23B6
330
238D
100
AcDbEntity
  8
cotes
 62
     0
370
    -2
100
AcDbLine
 10
663.0176300513642
 20
608.4957629074144
 30
0.0
 11
808.6438554878329
 21
540.5891387581828
 31
0.0
  0
SOLID
  5
23B7
330
238D
100
AcDbEntity
  8
cotes
 62
     0
100
AcDbTrace
 10
663.1937209937562
 20
608.8733911520129
 30
0.0
 11
662.8415391089722
 21
608.1181346628159
 31
0.0
 12
660.7518605837724
 22
609.5523085617663
 32
0.0
 13
660.7518605837724
 23
609.5523085617663
 33
0.0
  0
SOLID
  5
23B8
330
238D
100
AcDbEntity
  8
cotes
 62
     0
100
AcDbTrace
 10
808.8199464302249
 20
540.9667670027813
 30
0.0
 11
808.467764545441
 21
540.2115105135842
 31
0.0
 12
810.9096249554244
 22
539.532593103831
 32
0.0
 13
810.9096249554244
 23
539.532593103831
 33
0.0
  0
MTEXT
  5
23B9
330
238D
100
AcDbEntity
  8
cotes
 62
     0
100
AcDbMText
 10
736.7111974815583
 20
576.4305920557916
 30
0.0
 40
2.5
 41
0.0
 71
     5
 72
     1
  1
165,68
 11
0.9063077870366498
 21
-0.4226182617406998
 31
0.0
 73
     1
 44
1.0
  0
POINT
  5
23BA
330
238D
100
AcDbEntity
  8
Defpoints
 62
     0
100
AcDbPoint
 10
647.1970102823426
 20
580.483838283879
 30
0.0
  0
POINT
  5
23BB
330
238D
100
AcDbEntity
  8
Defpoints
 62
     0
100
AcDbPoint
 10
797.3547746539948
 20
510.4641228259437
 30
0.0
  0
POINT
  5
23BC
330
238D
100
AcDbEntity
  8
Defpoints
 62
     0
100
AcDbPoint
 10
810.9096249554244
 20
539.532593103831
 30
0.0
  0
ENDBLK
  5
2398
330
238D
100
AcDbEntity
  8
0
100
AcDbBlockEnd
  0
BLOCK
  5
23C8
330
23BE
100
AcDbEntity
  8
0
100
AcDbBlockBegin
  2
*D39
 70
     1
 10
0.0
 20
0.0
 30
0.0
  3
*D39
  1

  0
LINE
  5
23BF
330
23BE
100
AcDbEntity
  8
0
 62
     0
370
    -2
100
AcDbLine
 10
658.6378187749119
 20
603.7143904027983
 30
0.0
 11
671.2823436180717
 21
631.2664276731211
 31
0.0
  0
LINE
  5
23C0
330
23BE
100
AcDbEntity
  8
0
 62
     0
370
    -2
100
AcDbLine
 10
619.121165561158
 20
621.8498661346802
 30
0.0
 11
631.7656904043178
 21
649.4019034050031
 31
0.0
  0
LINE
  5
23C1
330
23BE
100
AcDbEntity
  8
0
 62
     0
370
    -2
100
AcDbLine
 10
668.4888166391354
 20
631.1731162699864
 30
0.0
 11
633.5164557141874
 21
647.2230686637346
 31
0.0
  0
SOLID
  5
23C2
330
23BE
100
AcDbEntity
  8
0
 62
     0
100
AcDbTrace
 10
668.6626102506465
 20
631.5518072940535
 30
0.0
 11
668.3150230276244
 21
630.7944252459193
 31
0.0
 12
670.7609627835384
 22
630.1303546009196
 32
0.0
 13
670.7609627835384
 23
630.1303546009196
 33
0.0
  0
SOLID
  5
23C3
330
23BE
100
AcDbEntity
  8
0
 62
     0
100
AcDbTrace
 10
633.6902493256986
 20
647.6017596878018
 30
0.0
 11
633.3426621026762
 21
646.8443776396676
 31
0.0
 12
631.2443095697845
 22
648.2658303328015
 32
0.0
 13
631.2443095697845
 23
648.2658303328015
 33
0.0
  0
MTEXT
  5
23C4
330
23BE
100
AcDbEntity
  8
0
 62
     0
100
AcDbMText
 10
651.8716042342171
 20
641.0915475871964
 30
0.0
 40
2.5
 41
0.0
 71
     5
 72
     1
  1
43,48
 11
0.9088584577611644
 21
-0.4171046676267214
 31
0.0
 73
     1
 44
1.0
  0
POINT
  5
23C5
330
23BE
100
AcDbEntity
  8
Defpoints
 62
     0
100
AcDbPoint
 10
658.3771283576452
 20
603.1463538666976
 30
0.0
  0
POINT
  5
23C6
330
23BE
100
AcDbEntity
  8
Defpoints
 62
     0
100
AcDbPoint
 10
618.8604751438913
 20
621.2818295985795
 30
0.0
  0
POINT
  5
23C7
330
23BE
100
AcDbEntity
  8
Defpoints
 62
     0
100
AcDbPoint
 10
631.2443095697845
 20
648.2658303328015
 30
0.0
  0
ENDBLK
  5
23C9
330
23BE
100
AcDbEntity
  8
0
100
AcDbBlockEnd
  0
BLOCK
  5
23D5
330
23CB
100
AcDbEntity
  8
0
100
AcDbBlockBegin
  2
*D40
 70
     1
 10
0.0
 20
0.0
 30
0.0
  3
*D40
  1

  0
LINE
  5
23CC
330
23CB
100
AcDbEntity
  8
0
 62
     0
370
    -2
100
AcDbLine
 10
638.5339362950475
 20
584.0911216759764
 30
0.0
 11
644.6847407313889
 21
571.5756741386757
 31
0.0
  0
LINE
  5
23CD
330
23CB
100
AcDbEntity
  8
0
 62
     0
370
    -2
100
AcDbLine
 10
667.3347982043065
 20
598.2455071802869
 30
0.0
 11
673.485602640648
 21
585.7300596429861
 31
0.0
  0
LINE
  5
23CE
330
23CB
100
AcDbEntity
  8
0
 62
     0
370
    -2
100
AcDbLine
 10
646.3770864844159
 20
573.8001888840105
 30
0.0
 11
670.690583392564
 21
585.7492273982067
 31
0.0
  0
SOLID
  5
23CF
330
23CB
100
AcDbEntity
  8
0
 62
     0
100
AcDbTrace
 10
646.1933075685731
 20
574.1741359674363
 30
0.0
 11
646.5608654002587
 21
573.4262418005845
 31
0.0
 12
644.1334039838604
 22
572.6975153889534
 32
0.0
 13
644.1334039838604
 23
572.6975153889534
 33
0.0
  0
SOLID
  5
23D0
330
23CB
100
AcDbEntity
  8
0
 62
     0
100
AcDbTrace
 10
670.5068044767211
 20
586.1231744816327
 30
0.0
 11
670.8743623084068
 21
585.3752803147808
 31
0.0
 12
672.9342658931194
 22
586.8519008932638
 32
0.0
 13
672.9342658931194
 23
586.8519008932638
 33
0.0
  0
MTEXT
  5
23D1
330
23CB
100
AcDbEntity
  8
0
 62
     0
100
AcDbMText
 10
657.6149403592758
 20
581.6444435582382
 30
0.0
 40
2.5
 41
0.0
 71
     5
 72
     1
  1
32,09
 11
0.8974730002221793
 21
0.4410693980228057
 31
0.0
 73
     1
 44
1.0
  0
POINT
  5
23D2
330
23CB
100
AcDbEntity
  8
Defpoints
 62
     0
100
AcDbPoint
 10
638.2582679212832
 20
584.6520423011154
 30
0.0
  0
POINT
  5
23D3
330
23CB
100
AcDbEntity
  8
Defpoints
 62
     0
100
AcDbPoint
 10
667.0591298305422
 20
598.8064278054259
 30
0.0
  0
POINT
  5
23D4
330
23CB
100
AcDbEntity
  8
Defpoints
 62
     0
100
AcDbPoint
 10
672.9342658931194
 20
586.8519008932638
 30
0.0
  0
ENDBLK
  5
23D6
330
23CB
100
AcDbEntity
  8
0
100
AcDbBlockEnd
  0
BLOCK
  5
23E8
330
23DE
100
AcDbEntity
  8
0
100
AcDbBlockBegin
  2
*D41
 70
     1
 10
0.0
 20
0.0
 30
0.0
  3
*D41
  1

  0
LINE
  5
23DF
330
23DE
100
AcDbEntity
  8
cotes
 62
     0
370
    -2
100
AcDbLine
 10
822.6142577341709
 20
515.9257124084099
 30
0.0
 11
833.0579711317261
 21
538.3223280652851
 31
0.0
  0
LINE
  5
23E0
330
23DE
100
AcDbEntity
  8
cotes
 62
     0
370
    -2
100
AcDbLine
 10
803.9581849936931
 20
524.6251819983913
 30
0.0
 11
814.4018983912483
 21
547.0217976552667
 31
0.0
  0
LINE
  5
23E1
330
23DE
100
AcDbEntity
  8
cotes
 62
     0
370
    -2
100
AcDbLine
 10
830.2639288369585
 20
538.245988985841
 30
0.0
 11
816.1393950316639
 21
544.8323672671191
 31
0.0
  0
SOLID
  5
23E2
330
23DE
100
AcDbEntity
  8
cotes
 62
     0
100
AcDbTrace
 10
830.4400197793505
 20
538.6236172304396
 30
0.0
 11
830.0878378945665
 21
537.8683607412425
 31
0.0
 12
832.52969830455
 22
537.1894433314894
 32
0.0
 13
832.52969830455
 23
537.1894433314894
 33
0.0
  0
SOLID
  5
23E3
330
23DE
100
AcDbEntity
  8
cotes
 62
     0
100
AcDbTrace
 10
816.315485974056
 20
545.2099955117176
 30
0.0
 11
815.9633040892721
 21
544.4547390225205
 31
0.0
 12
813.8736255640724
 22
545.8889129214708
 32
0.0
 13
813.8736255640724
 23
545.8889129214708
 33
0.0
  0
MTEXT
  5
23E4
330
23DE
100
AcDbEntity
  8
cotes
 62
     0
100
AcDbMText
 10
824.0821166462712
 20
543.4273193494732
 30
0.0
 40
2.5
 41
0.0
 71
     5
 72
     1
  1
20,58
 11
0.9063077870366493
 21
-0.4226182617407006
 31
0.0
 73
     1
 44
1.0
  0
POINT
  5
23E5
330
23DE
100
AcDbEntity
  8
Defpoints
 62
     0
100
AcDbPoint
 10
822.350121320583
 20
515.359270041512
 30
0.0
  0
POINT
  5
23E6
330
23DE
100
AcDbEntity
  8
Defpoints
 62
     0
100
AcDbPoint
 10
803.6940485801054
 20
524.0587396314936
 30
0.0
  0
POINT
  5
23E7
330
23DE
100
AcDbEntity
  8
Defpoints
 62
     0
100
AcDbPoint
 10
813.8736255640724
 20
545.8889129214708
 30
0.0
  0
ENDBLK
  5
23E9
330
23DE
100
AcDbEntity
  8
0
100
AcDbBlockEnd
  0
BLOCK
  5
23F5
330
23EB
100
AcDbEntity
  8
0
100
AcDbBlockBegin
  2
*D42
 70
     1
 10
0.0
 20
0.0
 30
0.0
  3
*D42
  1

  0
ARC
  5
23EC
330
23EB
100
AcDbEntity
  8
cotes
 62
     0
370
    -2
100
AcDbCircle
 10
785.0541575202113
 20
516.1999947954597
 30
0.0
 40
59.9277010652059
100
AcDbArc
 50
157.3903776540213
 51
188.7011338191513
  0
SOLID
  5
23ED
330
23EB
100
AcDbEntity
  8
cotes
 62
     0
100
AcDbTrace
 10
729.3509409991103
 20
539.4073970886033
 30
0.0
 11
730.1133791479427
 21
539.0710453179085
 31
0.0
 12
730.7412153856105
 22
541.5265356497532
 32
0.0
 13
730.7412153856105
 23
541.5265356497532
 33
0.0
  0
SOLID
  5
23EE
330
23EB
100
AcDbEntity
  8
cotes
 62
     0
100
AcDbTrace
 10
726.2266375750485
 20
507.2057201024897
 30
0.0
 11
725.4057039426587
 21
507.0624985410686
 31
0.0
 12
726.2458354431169
 22
504.6713084246102
 32
0.0
 13
726.2458354431169
 23
504.6713084246102
 33
0.0
  0
MTEXT
  5
23EF
330
23EB
100
AcDbEntity
  8
cotes
 62
     0
100
AcDbMText
 10
723.7061291271502
 20
523.6828599712728
 30
0.0
 40
2.5
 41
0.0
 71
     5
 72
     1
  1
36°
 11
0.1210766689293756
 21
0.9926431585625151
 31
0.0
 73
     1
 44
1.0
  0
POINT
  5
23F0
330
23EB
100
AcDbEntity
  8
Defpoints
 62
     0
100
AcDbPoint
 10
726.6552307544158
 20
529.6497051107023
 30
0.0
  0
POINT
  5
23F1
330
23EB
100
AcDbEntity
  8
Defpoints
 62
     0
100
AcDbPoint
 10
631.4686726026973
 20
587.8180825939454
 30
0.0
  0
POINT
  5
23F2
330
23EB
100
AcDbEntity
  8
Defpoints
 62
     0
100
AcDbPoint
 10
821.3780791235583
 20
523.3208764178828
 30
0.0
  0
POINT
  5
23F3
330
23EB
100
AcDbEntity
  8
Defpoints
 62
     0
100
AcDbPoint
 10
320.0
 20
425.0315455327577
 30
0.0
  0
POINT
  5
23F4
330
23EB
100
AcDbEntity
  8
Defpoints
 62
     0
100
AcDbPoint
 10
927.0205044967713
 20
450.0
 30
0.0
  0
ENDBLK
  5
23F6
330
23EB
100
AcDbEntity
  8
0
100
AcDbBlockEnd
  0
BLOCK
  5
2406
330
23FC
100
AcDbEntity
  8
0
100
AcDbBlockBegin
  2
*D43
 70
     1
 10
0.0
 20
0.0
 30
0.0
  3
*D43
  1

  0
LINE
  5
2408
330
23FC
100
AcDbEntity
  8
cotes
 62
     0
370
    -2
100
AcDbLine
 10
340.625
 20
456.2435537077212
 30
0.0
 11
376.1142210685725
 21
456.2435537077212
 31
0.0
  0
LINE
  5
2409
330
23FC
100
AcDbEntity
  8
cotes
 62
     0
370
    -2
100
AcDbLine
 10
340.625
 20
406.2435537077212
 30
0.0
 11
376.1142210685725
 21
406.2435537077212
 31
0.0
  0
LINE
  5
240A
330
23FC
100
AcDbEntity
  8
cotes
 62
     0
370
    -2
100
AcDbLine
 10
374.8642210685725
 20
453.7435537077213
 30
0.0
 11
374.8642210685725
 21
408.7435537077213
 31
0.0
  0
SOLID
  5
240B
330
23FC
100
AcDbEntity
  8
cotes
 62
     0
100
AcDbTrace
 10
374.4475544019058
 20
453.7435537077213
 30
0.0
 11
375.2808877352392
 21
453.7435537077213
 31
0.0
 12
374.8642210685725
 22
456.2435537077212
 32
0.0
 13
374.8642210685725
 23
456.2435537077212
 33
0.0
  0
SOLID
  5
240C
330
23FC
100
AcDbEntity
  8
cotes
 62
     0
100
AcDbTrace
 10
374.4475544019058
 20
408.7435537077213
 30
0.0
 11
375.2808877352392
 21
408.7435537077213
 31
0.0
 12
374.8642210685725
 22
406.2435537077212
 32
0.0
 13
374.8642210685725
 23
406.2435537077212
 33
0.0
  0
MTEXT
  5
240D
330
23FC
100
AcDbEntity
  8
cotes
 62
     0
100
AcDbMText
 10
372.9892210685724
 20
431.2435537077213
 30
0.0
 40
2.5
 41
0.0
 71
     5
 72
     1
  1
50
 11
0.0000000000000001
 21
1.0
 31
0.0
 73
     1
 44
1.0
  0
POINT
  5
240E
330
23FC
100
AcDbEntity
  8
Defpoints
 62
     0
100
AcDbPoint
 10
340.0
 20
456.2435537077212
 30
0.0
  0
POINT
  5
240F
330
23FC
100
AcDbEntity
  8
Defpoints
 62
     0
100
AcDbPoint
 10
340.0
 20
406.2435537077212
 30
0.0
  0
POINT
  5
2410
330
23FC
100
AcDbEntity
  8
Defpoints
 62
     0
100
AcDbPoint
 10
374.8642210685725
 20
406.2435537077212
 30
0.0
  0
ENDBLK
  5
2407
330
23FC
100
AcDbEntity
  8
0
100
AcDbBlockEnd
  0
BLOCK
  5
241C
330
2412
100
AcDbEntity
  8
0
100
AcDbBlockBegin
  2
*D44
 70
     1
 10
0.0
 20
0.0
 30
0.0
  3
*D44
  1

  0
LINE
  5
2413
330
2412
100
AcDbEntity
  8
cotes
 62
     0
370
    -2
100
AcDbLine
 10
300.0
 20
415.6185537077212
 30
0.0
 11
300.0
 21
386.6721475984604
 31
0.0
  0
LINE
  5
2414
330
2412
100
AcDbEntity
  8
cotes
 62
     0
370
    -2
100
AcDbLine
 10
275.0
 20
405.6185537077213
 30
0.0
 11
275.0
 21
386.6721475984604
 31
0.0
  0
LINE
  5
2415
330
2412
100
AcDbEntity
  8
cotes
 62
     0
370
    -2
100
AcDbLine
 10
297.5
 20
387.9221475984604
 30
0.0
 11
277.4999999999999
 21
387.9221475984604
 31
0.0
  0
SOLID
  5
2416
330
2412
100
AcDbEntity
  8
cotes
 62
     0
100
AcDbTrace
 10
297.5
 20
388.3388142651271
 30
0.0
 11
297.5
 21
387.5054809317937
 31
0.0
 12
300.0
 22
387.9221475984604
 32
0.0
 13
300.0
 23
387.9221475984604
 33
0.0
  0
SOLID
  5
2417
330
2412
100
AcDbEntity
  8
cotes
 62
     0
100
AcDbTrace
 10
277.4999999999999
 20
388.3388142651271
 30
0.0
 11
277.4999999999999
 21
387.5054809317937
 31
0.0
 12
275.0
 22
387.9221475984604
 32
0.0
 13
275.0
 23
387.9221475984604
 33
0.0
  0
MTEXT
  5
2418
330
2412
100
AcDbEntity
  8
cotes
 62
     0
100
AcDbMText
 10
287.5
 20
389.7971475984604
 30
0.0
 40
2.5
 41
0.0
 71
     5
 72
     1
  1
25
 73
     1
 44
1.0
  0
POINT
  5
2419
330
2412
100
AcDbEntity
  8
Defpoints
 62
     0
100
AcDbPoint
 10
300.0
 20
416.2435537077213
 30
0.0
  0
POINT
  5
241A
330
2412
100
AcDbEntity
  8
Defpoints
 62
     0
100
AcDbPoint
 10
275.0
 20
406.2435537077212
 30
0.0
  0
POINT
  5
241B
330
2412
100
AcDbEntity
  8
Defpoints
 62
     0
100
AcDbPoint
 10
275.0
 20
387.9221475984604
 30
0.0
  0
ENDBLK
  5
241D
330
2412
100
AcDbEntity
  8
0
100
AcDbBlockEnd
  0
BLOCK
  5
2429
330
241F
100
AcDbEntity
  8
0
100
AcDbBlockBegin
  2
*D45
 70
     1
 10
0.0
 20
0.0
 30
0.0
  3
*D45
  1

  0
LINE
  5
2420
330
241F
100
AcDbEntity
  8
cotes
 62
     0
370
    -2
100
AcDbLine
 10
300.625
 20
416.2435537077213
 30
0.0
 11
316.2028457365131
 21
416.2435537077213
 31
0.0
  0
LINE
  5
2421
330
241F
100
AcDbEntity
  8
cotes
 62
     0
370
    -2
100
AcDbLine
 10
305.6249999999999
 20
406.2435537077212
 30
0.0
 11
316.2028457365131
 21
406.2435537077212
 31
0.0
  0
LINE
  5
2422
330
241F
100
AcDbEntity
  8
cotes
 62
     0
370
    -2
100
AcDbLine
 10
314.9528457365131
 20
413.7435537077212
 30
0.0
 11
314.9528457365131
 21
408.7435537077213
 31
0.0
  0
SOLID
  5
2423
330
241F
100
AcDbEntity
  8
cotes
 62
     0
100
AcDbTrace
 10
314.5361790698464
 20
413.7435537077212
 30
0.0
 11
315.3695124031798
 21
413.7435537077212
 31
0.0
 12
314.9528457365131
 22
416.2435537077213
 32
0.0
 13
314.9528457365131
 23
416.2435537077213
 33
0.0
  0
SOLID
  5
2424
330
241F
100
AcDbEntity
  8
cotes
 62
     0
100
AcDbTrace
 10
314.5361790698464
 20
408.7435537077213
 30
0.0
 11
315.3695124031798
 21
408.7435537077213
 31
0.0
 12
314.9528457365131
 22
406.2435537077212
 32
0.0
 13
314.9528457365131
 23
406.2435537077212
 33
0.0
  0
MTEXT
  5
2425
330
241F
100
AcDbEntity
  8
cotes
 62
     0
100
AcDbMText
 10
313.077845736513
 20
411.2435537077213
 30
0.0
 40
2.5
 41
0.0
 71
     5
 72
     1
  1
10
 11
0.0000000000000001
 21
1.0
 31
0.0
 73
     1
 44
1.0
  0
POINT
  5
2426
330
241F
100
AcDbEntity
  8
Defpoints
 62
     0
100
AcDbPoint
 10
300.0
 20
416.2435537077213
 30
0.0
  0
POINT
  5
2427
330
241F
100
AcDbEntity
  8
Defpoints
 62
     0
100
AcDbPoint
 10
305.0
 20
406.2435537077212
 30
0.0
  0
POINT
  5
2428
330
241F
100
AcDbEntity
  8
Defpoints
 62
     0
100
AcDbPoint
 10
314.9528457365131
 20
406.2435537077212
 30
0.0
  0
ENDBLK
  5
242A
330
241F
100
AcDbEntity
  8
0
100
AcDbBlockEnd
  0
BLOCK
  5
2438
330
242C
100
AcDbEntity
  8
0
100
AcDbBlockBegin
  2
*D46
 70
     1
 10
0.0
 20
0.0
 30
0.0
  3
*D46
  1

  0
LINE
  5
242D
330
242C
100
AcDbEntity
  8
cotes
 62
     0
370
    -2
100
AcDbLine
 10
280.0
 20
432.4503540339943
 30
0.0
 11
280.0
 21
453.4763293856594
 31
0.0
  0
LINE
  5
242E
330
242C
100
AcDbEntity
  8
cotes
 62
     0
370
    -2
100
AcDbLine
 10
275.0
 20
432.4503540339943
 30
0.0
 11
275.0
 21
453.4763293856594
 31
0.0
  0
LINE
  5
242F
330
242C
100
AcDbEntity
  8
cotes
 62
     0
370
    -2
100
AcDbLine
 10
282.5
 20
452.2263293856594
 30
0.0
 11
285.0
 21
452.2263293856594
 31
0.0
  0
LINE
  5
2430
330
242C
100
AcDbEntity
  8
cotes
 62
     0
370
    -2
100
AcDbLine
 10
272.5
 20
452.2263293856594
 30
0.0
 11
270.0
 21
452.2263293856594
 31
0.0
  0
LINE
  5
2431
330
242C
100
AcDbEntity
  8
cotes
 62
     0
370
    -2
100
AcDbLine
 10
280.0
 20
452.2263293856594
 30
0.0
 11
275.0
 21
452.2263293856594
 31
0.0
  0
SOLID
  5
2432
330
242C
100
AcDbEntity
  8
cotes
 62
     0
100
AcDbTrace
 10
282.5
 20
452.6429960523262
 30
0.0
 11
282.5
 21
451.8096627189928
 31
0.0
 12
280.0
 22
452.2263293856594
 32
0.0
 13
280.0
 23
452.2263293856594
 33
0.0
  0
SOLID
  5
2433
330
242C
100
AcDbEntity
  8
cotes
 62
     0
100
AcDbTrace
 10
272.5
 20
452.6429960523262
 30
0.0
 11
272.5
 21
451.8096627189928
 31
0.0
 12
275.0
 22
452.2263293856594
 32
0.0
 13
275.0
 23
452.2263293856594
 33
0.0
  0
MTEXT
  5
2434
330
242C
100
AcDbEntity
  8
cotes
 62
     0
100
AcDbMText
 10
277.4999999999999
 20
454.1013293856594
 30
0.0
 40
2.5
 41
0.0
 71
     5
 72
     1
  1
5
 73
     1
 44
1.0
  0
POINT
  5
2435
330
242C
100
AcDbEntity
  8
Defpoints
 62
     0
100
AcDbPoint
 10
280.0
 20
431.8253540339942
 30
0.0
  0
POINT
  5
2436
330
242C
100
AcDbEntity
  8
Defpoints
 62
     0
100
AcDbPoint
 10
275.0
 20
431.8253540339942
 30
0.0
  0
POINT
  5
2437
330
242C
100
AcDbEntity
  8
Defpoints
 62
     0
100
AcDbPoint
 10
275.0
 20
452.2263293856594
 30
0.0
  0
ENDBLK
  5
2439
330
242C
100
AcDbEntity
  8
0
100
AcDbBlockEnd
  0
BLOCK
  5
2445
330
243B
100
AcDbEntity
  8
0
100
AcDbBlockBegin
  2
*D47
 70
     1
 10
0.0
 20
0.0
 30
0.0
  3
*D47
  1

  0
LINE
  5
243C
330
243B
100
AcDbEntity
  8
cotes
 62
     0
370
    -2
100
AcDbLine
 10
280.625
 20
431.8253540339942
 30
0.0
 11
296.2839645208326
 21
431.8253540339942
 31
0.0
  0
LINE
  5
243D
330
243B
100
AcDbEntity
  8
cotes
 62
     0
370
    -2
100
AcDbLine
 10
280.625
 20
416.8253540339943
 30
0.0
 11
296.2839645208326
 21
416.8253540339943
 31
0.0
  0
LINE
  5
243E
330
243B
100
AcDbEntity
  8
cotes
 62
     0
370
    -2
100
AcDbLine
 10
295.0339645208326
 20
429.3253540339943
 30
0.0
 11
295.0339645208326
 21
419.3253540339942
 31
0.0
  0
SOLID
  5
243F
330
243B
100
AcDbEntity
  8
cotes
 62
     0
100
AcDbTrace
 10
294.6172978541659
 20
429.3253540339943
 30
0.0
 11
295.4506311874993
 21
429.3253540339943
 31
0.0
 12
295.0339645208326
 22
431.8253540339942
 32
0.0
 13
295.0339645208326
 23
431.8253540339942
 33
0.0
  0
SOLID
  5
2440
330
243B
100
AcDbEntity
  8
cotes
 62
     0
100
AcDbTrace
 10
294.6172978541659
 20
419.3253540339942
 30
0.0
 11
295.4506311874993
 21
419.3253540339942
 31
0.0
 12
295.0339645208326
 22
416.8253540339943
 32
0.0
 13
295.0339645208326
 23
416.8253540339943
 33
0.0
  0
MTEXT
  5
2441
330
243B
100
AcDbEntity
  8
cotes
 62
     0
100
AcDbMText
 10
293.1589645208325
 20
424.3253540339943
 30
0.0
 40
2.5
 41
0.0
 71
     5
 72
     1
  1
15
 11
0.0000000000000001
 21
1.0
 31
0.0
 73
     1
 44
1.0
  0
POINT
  5
2442
330
243B
100
AcDbEntity
  8
Defpoints
 62
     0
100
AcDbPoint
 10
280.0
 20
431.8253540339942
 30
0.0
  0
POINT
  5
2443
330
243B
100
AcDbEntity
  8
Defpoints
 62
     0
100
AcDbPoint
 10
280.0
 20
416.8253540339943
 30
0.0
  0
POINT
  5
2444
330
243B
100
AcDbEntity
  8
Defpoints
 62
     0
100
AcDbPoint
 10
295.0339645208326
 20
416.8253540339943
 30
0.0
  0
ENDBLK
  5
2446
330
243B
100
AcDbEntity
  8
0
100
AcDbBlockEnd
  0
BLOCK
  5
2452
330
2448
100
AcDbEntity
  8
0
100
AcDbBlockBegin
  2
*D48
 70
     1
 10
0.0
 20
0.0
 30
0.0
  3
*D48
  1

  0
LINE
  5
2449
330
2448
100
AcDbEntity
  8
cotes
 62
     0
370
    -2
100
AcDbLine
 10
310.0
 20
446.8685537077212
 30
0.0
 11
310.0
 21
467.5356657063998
 31
0.0
  0
LINE
  5
244A
330
2448
100
AcDbEntity
  8
cotes
 62
     0
370
    -2
100
AcDbLine
 10
275.0
 20
441.1422869901867
 30
0.0
 11
275.0
 21
467.5356657063998
 31
0.0
  0
LINE
  5
244B
330
2448
100
AcDbEntity
  8
cotes
 62
     0
370
    -2
100
AcDbLine
 10
307.5
 20
466.2856657063998
 30
0.0
 11
277.4999999999999
 21
466.2856657063998
 31
0.0
  0
SOLID
  5
244C
330
2448
100
AcDbEntity
  8
cotes
 62
     0
100
AcDbTrace
 10
307.5
 20
466.7023323730665
 30
0.0
 11
307.5
 21
465.8689990397332
 31
0.0
 12
310.0
 22
466.2856657063998
 32
0.0
 13
310.0
 23
466.2856657063998
 33
0.0
  0
SOLID
  5
244D
330
2448
100
AcDbEntity
  8
cotes
 62
     0
100
AcDbTrace
 10
277.4999999999999
 20
466.7023323730665
 30
0.0
 11
277.4999999999999
 21
465.8689990397332
 31
0.0
 12
275.0
 22
466.2856657063998
 32
0.0
 13
275.0
 23
466.2856657063998
 33
0.0
  0
MTEXT
  5
244E
330
2448
100
AcDbEntity
  8
cotes
 62
     0
100
AcDbMText
 10
292.5
 20
468.1606657063999
 30
0.0
 40
2.5
 41
0.0
 71
     5
 72
     1
  1
35
 73
     1
 44
1.0
  0
POINT
  5
244F
330
2448
100
AcDbEntity
  8
Defpoints
 62
     0
100
AcDbPoint
 10
310.0
 20
446.2435537077213
 30
0.0
  0
POINT
  5
2450
330
2448
100
AcDbEntity
  8
Defpoints
 62
     0
100
AcDbPoint
 10
275.0
 20
440.5172869901868
 30
0.0
  0
POINT
  5
2451
330
2448
100
AcDbEntity
  8
Defpoints
 62
     0
100
AcDbPoint
 10
275.0
 20
466.2856657063998
 30
0.0
  0
ENDBLK
  5
2453
330
2448
100
AcDbEntity
  8
0
100
AcDbBlockEnd
  0
BLOCK
  5
245F
330
2455
100
AcDbEntity
  8
0
100
AcDbBlockBegin
  2
*D49
 70
     1
 10
0.0
 20
0.0
 30
0.0
  3
*D49
  1

  0
LINE
  5
2456
330
2455
100
AcDbEntity
  8
cotes
 62
     0
370
    -2
100
AcDbLine
 10
310.625
 20
446.2435537077213
 30
0.0
 11
318.2788106778985
 21
446.2435537077213
 31
0.0
  0
LINE
  5
2457
330
2455
100
AcDbEntity
  8
cotes
 62
     0
370
    -2
100
AcDbLine
 10
308.346699810118
 20
456.2435537077212
 30
0.0
 11
318.2788106778985
 21
456.2435537077212
 31
0.0
  0
LINE
  5
2458
330
2455
100
AcDbEntity
  8
cotes
 62
     0
370
    -2
100
AcDbLine
 10
317.0288106778984
 20
448.7435537077212
 30
0.0
 11
317.0288106778984
 21
453.7435537077213
 31
0.0
  0
SOLID
  5
2459
330
2455
100
AcDbEntity
  8
cotes
 62
     0
100
AcDbTrace
 10
316.6121440112318
 20
448.7435537077212
 30
0.0
 11
317.4454773445651
 21
448.7435537077212
 31
0.0
 12
317.0288106778984
 22
446.2435537077213
 32
0.0
 13
317.0288106778984
 23
446.2435537077213
 33
0.0
  0
SOLID
  5
245A
330
2455
100
AcDbEntity
  8
cotes
 62
     0
100
AcDbTrace
 10
316.6121440112318
 20
453.7435537077213
 30
0.0
 11
317.4454773445651
 21
453.7435537077213
 31
0.0
 12
317.0288106778984
 22
456.2435537077212
 32
0.0
 13
317.0288106778984
 23
456.2435537077212
 33
0.0
  0
MTEXT
  5
245B
330
2455
100
AcDbEntity
  8
cotes
 62
     0
100
AcDbMText
 10
315.1538106778983
 20
451.2435537077213
 30
0.0
 40
2.5
 41
0.0
 71
     5
 72
     1
  1
10
 11
0.0000000000000001
 21
1.0
 31
0.0
 73
     1
 44
1.0
  0
POINT
  5
245C
330
2455
100
AcDbEntity
  8
Defpoints
 62
     0
100
AcDbPoint
 10
310.0
 20
446.2435537077213
 30
0.0
  0
POINT
  5
245D
330
2455
100
AcDbEntity
  8
Defpoints
 62
     0
100
AcDbPoint
 10
307.721699810118
 20
456.2435537077212
 30
0.0
  0
POINT
  5
245E
330
2455
100
AcDbEntity
  8
Defpoints
 62
     0
100
AcDbPoint
 10
317.0288106778984
 20
456.2435537077212
 30
0.0
  0
ENDBLK
  5
2460
330
2455
100
AcDbEntity
  8
0
100
AcDbBlockEnd
  0
BLOCK
  5
24B7
330
24AD
100
AcDbEntity
  8
0
100
AcDbBlockBegin
  2
*D50
 70
     1
 10
0.0
 20
0.0
 30
0.0
  3
*D50
  1

  0
LINE
  5
24D1
330
24AD
100
AcDbEntity
  8
cotes
 62
     0
370
    -2
100
AcDbLine
 10
1281.737062992572
 20
663.7707923119178
 30
0.0
 11
1275.642813356342
 21
672.4742827824883
 31
0.0
  0
LINE
  5
24D2
330
24AD
100
AcDbEntity
  8
cotes
 62
     0
370
    -2
100
AcDbLine
 10
1244.875220999568
 20
637.9598526761206
 30
0.0
 11
1238.780971363338
 21
646.6633431466911
 31
0.0
  0
LINE
  5
24D3
330
24AD
100
AcDbEntity
  8
cotes
 62
     0
370
    -2
100
AcDbLine
 10
1274.311903791059
 20
670.0164016362493
 30
0.0
 11
1241.545822019499
 21
647.0733441822076
 31
0.0
  0
SOLID
  5
24D4
330
24AD
100
AcDbEntity
  8
cotes
 62
     0
100
AcDbTrace
 10
1274.072913609246
 20
670.3577149880365
 30
0.0
 11
1274.550893972872
 21
669.6750882844623
 31
0.0
 12
1276.359783901781
 22
671.450342727127
 32
0.0
 13
1276.359783901781
 23
671.450342727127
 33
0.0
  0
SOLID
  5
24D5
330
24AD
100
AcDbEntity
  8
cotes
 62
     0
100
AcDbTrace
 10
1241.306831837686
 20
647.4146575339946
 30
0.0
 11
1241.784812201312
 21
646.7320308304205
 31
0.0
 12
1239.497941908777
 22
645.6394030913299
 32
0.0
 13
1239.497941908777
 23
645.6394030913299
 33
0.0
  0
MTEXT
  5
24D6
330
24AD
100
AcDbEntity
  8
cotes
 62
     0
100
AcDbMText
 10
1256.853407087121
 20
660.0807829922705
 30
0.0
 40
2.5
 41
0.0
 71
     5
 72
     1
  1
45
 11
0.8191520442889881
 21
0.5735764363510514
 31
0.0
 73
     1
 44
1.0
  0
POINT
  5
24D7
330
24AD
100
AcDbEntity
  8
Defpoints
 62
     0
100
AcDbPoint
 10
1282.095548265292
 20
663.2588222842372
 30
0.0
  0
POINT
  5
24D8
330
24AD
100
AcDbEntity
  8
Defpoints
 62
     0
100
AcDbPoint
 10
1245.233706272288
 20
637.44788264844
 30
0.0
  0
POINT
  5
24D9
330
24AD
100
AcDbEntity
  8
Defpoints
 62
     0
100
AcDbPoint
 10
1239.497941908777
 20
645.6394030913299
 30
0.0
  0
ENDBLK
  5
24B8
330
24AD
100
AcDbEntity
  8
0
100
AcDbBlockEnd
  0
BLOCK
  5
24C4
330
24BA
100
AcDbEntity
  8
0
100
AcDbBlockBegin
  2
*D51
 70
     1
 10
0.0
 20
0.0
 30
0.0
  3
*D51
  1

  0
ARC
  5
24BB
330
24BA
100
AcDbEntity
  8
cotes
 62
     0
370
    -2
100
AcDbCircle
 10
1280.047668154569
 20
661.8248811933597
 30
0.0
 40
14.79882577667801
100
AcDbArc
 50
224.6906554970745
 51
295.3093445029259
  0
SOLID
  5
24BC
330
24BA
100
AcDbEntity
  8
cotes
 62
     0
100
AcDbTrace
 10
1269.20706598889
 20
651.1502156979629
 30
0.0
 11
1269.84688005608
 21
651.6841467832822
 31
0.0
 12
1267.925179766527
 22
653.3366234421926
 32
0.0
 13
1267.925179766527
 23
653.3366234421926
 33
0.0
  0
SOLID
  5
24BD
330
24BA
100
AcDbEntity
  8
cotes
 62
     0
100
AcDbTrace
 10
1286.164938020558
 20
648.80683289138
 30
0.0
 11
1286.583551391845
 21
648.0862724915351
 31
0.0
 12
1288.535925905736
 22
649.7023928053172
 32
0.0
 13
1288.535925905736
 23
649.7023928053172
 33
0.0
  0
MTEXT
  5
24BE
330
24BA
100
AcDbEntity
  8
cotes
 62
     0
100
AcDbMText
 10
1277.803469359964
 20
649.097397369908
 30
0.0
 40
2.5
 41
0.0
 71
     5
 72
     1
  1
90°
 11
0.9848077530122086
 21
-0.1736481776669275
 31
0.0
 73
     1
 44
1.0
  0
POINT
  5
24BF
330
24BA
100
AcDbEntity
  8
Defpoints
 62
     0
100
AcDbPoint
 10
1273.793414129026
 20
648.4125901529576
 30
0.0
  0
POINT
  5
24C0
330
24BA
100
AcDbEntity
  8
Defpoints
 62
     0
100
AcDbPoint
 10
1280.047668154569
 20
661.8248811933597
 30
0.0
  0
POINT
  5
24C1
330
24BA
100
AcDbEntity
  8
Defpoints
 62
     0
100
AcDbPoint
 10
1312.212061039852
 20
615.8893676061733
 30
0.0
  0
POINT
  5
24C2
330
24BA
100
AcDbEntity
  8
Defpoints
 62
     0
100
AcDbPoint
 10
1280.047668154569
 20
661.8248811933597
 30
0.0
  0
POINT
  5
24C3
330
24BA
100
AcDbEntity
  8
Defpoints
 62
     0
100
AcDbPoint
 10
1247.28158638301
 20
638.8818237393177
 30
0.0
  0
ENDBLK
  5
24C5
330
24BA
100
AcDbEntity
  8
0
100
AcDbBlockEnd
  0
BLOCK
  5
24E6
330
24DC
100
AcDbEntity
  8
0
100
AcDbBlockBegin
  2
*D52
 70
     1
 10
0.0
 20
0.0
 30
0.0
  3
*D52
  1

  0
LINE
  5
24DD
330
24DC
100
AcDbEntity
  8
cotes
 62
     0
370
    -2
100
AcDbLine
 10
1291.993655564232
 20
650.2125143220417
 30
0.0
 11
1304.147423353906
 21
658.7226741460492
 31
0.0
  0
LINE
  5
24DE
330
24DC
100
AcDbEntity
  8
cotes
 62
     0
370
    -2
100
AcDbLine
 10
1282.607518292971
 20
663.6173075569573
 30
0.0
 11
1294.761286082646
 21
672.127467380965
 31
0.0
  0
LINE
  5
24DF
330
24DC
100
AcDbEntity
  8
cotes
 62
     0
370
    -2
100
AcDbLine
 10
1301.689542207666
 20
660.0535837113292
 30
0.0
 11
1295.171287118167
 21
669.3626167248043
 31
0.0
  0
SOLID
  5
24E0
330
24DC
100
AcDbEntity
  8
cotes
 62
     0
100
AcDbTrace
 10
1302.030855559453
 20
660.2925738931427
 30
0.0
 11
1301.348228855879
 21
659.8145935295157
 31
0.0
 12
1303.123483298547
 22
658.0057036006089
 32
0.0
 13
1303.123483298547
 23
658.0057036006089
 33
0.0
  0
SOLID
  5
24E1
330
24DC
100
AcDbEntity
  8
cotes
 62
     0
100
AcDbTrace
 10
1295.512600469953
 20
669.6016069066179
 30
0.0
 11
1294.82997376638
 21
669.1236265429909
 31
0.0
 12
1293.737346027286
 22
671.4104968355246
 32
0.0
 13
1293.737346027286
 23
671.4104968355246
 33
0.0
  0
MTEXT
  5
24E2
330
24DC
100
AcDbEntity
  8
cotes
 62
     0
100
AcDbMText
 10
1300.13698142185
 20
665.9030511271342
 30
0.0
 40
2.5
 41
0.0
 71
     5
 72
     1
  1
16,36
 11
0.5735764363522781
 21
-0.8191520442881291
 31
0.0
 73
     1
 44
1.0
  0
POINT
  5
24E3
330
24DC
100
AcDbEntity
  8
Defpoints
 62
     0
100
AcDbPoint
 10
1291.481685536552
 20
649.8540290493215
 30
0.0
  0
POINT
  5
24E4
330
24DC
100
AcDbEntity
  8
Defpoints
 62
     0
100
AcDbPoint
 10
1282.095548265292
 20
663.2588222842371
 30
0.0
  0
POINT
  5
24E5
330
24DC
100
AcDbEntity
  8
Defpoints
 62
     0
100
AcDbPoint
 10
1293.737346027286
 20
671.4104968355246
 30
0.0
  0
ENDBLK
  5
24E7
330
24DC
100
AcDbEntity
  8
0
100
AcDbBlockEnd
  0
BLOCK
  5
24FC
330
24F2
100
AcDbEntity
  8
0
100
AcDbBlockBegin
  2
*D53
 70
     1
 10
0.0
 20
0.0
 30
0.0
  3
*D53
  1

  0
ARC
  5
24F3
330
24F2
100
AcDbEntity
  8
cotes
 62
     0
370
    -2
100
AcDbCircle
 10
1245.233706272287
 20
637.44788264844
 30
0.0
 40
14.85684726723135
100
AcDbArc
 50
335.9192626452013
 51
25.34728004705321
  0
SOLID
  5
24F4
330
24F2
100
AcDbEntity
  8
cotes
 62
     0
100
AcDbTrace
 10
1259.162334934617
 20
631.1845263065959
 30
0.0
 11
1258.432831055262
 21
631.587351994023
 31
0.0
 12
1257.589105932658
 22
629.197427512246
 32
0.0
 13
1257.589105932658
 23
629.197427512246
 33
0.0
  0
SOLID
  5
24F5
330
24F2
100
AcDbEntity
  8
cotes
 62
     0
100
AcDbTrace
 10
1258.300067863494
 20
643.5987288793065
 30
0.0
 11
1259.020489641869
 21
644.0175807692237
 31
0.0
 12
1257.403723082929
 22
645.9694201593905
 32
0.0
 13
1257.403723082929
 23
645.9694201593905
 33
0.0
  0
MTEXT
  5
24F6
330
24F2
100
AcDbEntity
  8
cotes
 62
     0
100
AcDbMText
 10
1261.964531556016
 20
637.6328104703552
 30
0.0
 40
2.5
 41
0.0
 71
     5
 72
     1
  1
69°
 11
0.0110524450146809
 21
-0.9999389198642072
 31
0.0
 73
     1
 44
1.0
  0
POINT
  5
24F7
330
24F2
100
AcDbEntity
  8
Defpoints
 62
     0
100
AcDbPoint
 10
1259.826313070788
 20
634.6583060593871
 30
0.0
  0
POINT
  5
24F8
330
24F2
100
AcDbEntity
  8
Defpoints
 62
     0
100
AcDbPoint
 10
1245.233706272287
 20
637.44788264844
 30
0.0
  0
POINT
  5
24F9
330
24F2
100
AcDbEntity
  8
Defpoints
 62
     0
100
AcDbPoint
 10
1282.095548265292
 20
663.2588222842372
 30
0.0
  0
POINT
  5
24FA
330
24F2
100
AcDbEntity
  8
Defpoints
 62
     0
100
AcDbPoint
 10
1245.233706272287
 20
637.44788264844
 30
0.0
  0
POINT
  5
24FB
330
24F2
100
AcDbEntity
  8
Defpoints
 62
     0
100
AcDbPoint
 10
1285.39168605978
 20
610.6319463206501
 30
0.0
  0
ENDBLK
  5
24FD
330
24F2
100
AcDbEntity
  8
0
100
AcDbBlockEnd
  0
BLOCK
  5
2509
330
24FF
100
AcDbEntity
  8
0
100
AcDbBlockBegin
  2
*D54
 70
     1
 10
0.0
 20
0.0
 30
0.0
  3
*D54
  1

  0
LINE
  5
2500
330
24FF
100
AcDbEntity
  8
cotes
 62
     0
370
    -2
100
AcDbLine
 10
1308.264973173808
 20
625.8850102635521
 30
0.0
 11
1330.326542073719
 21
594.3778246135407
 31
0.0
  0
LINE
  5
2501
330
24FF
100
AcDbEntity
  8
cotes
 62
     0
370
    -2
100
AcDbLine
 10
1285.7501713325
 20
610.1199762929696
 30
0.0
 11
1307.811740232411
 21
578.6127906429583
 31
0.0
  0
LINE
  5
2502
330
24FF
100
AcDbEntity
  8
cotes
 62
     0
370
    -2
100
AcDbLine
 10
1327.561691417558
 20
593.9678235780244
 30
0.0
 11
1309.142649797694
 21
581.0706717891973
 31
0.0
  0
SOLID
  5
2503
330
24FF
100
AcDbEntity
  8
cotes
 62
     0
100
AcDbTrace
 10
1327.322701235745
 20
594.3091369298115
 30
0.0
 11
1327.800681599371
 21
593.6265102262373
 31
0.0
 12
1329.60957152828
 22
595.401764668902
 32
0.0
 13
1329.60957152828
 23
595.401764668902
 33
0.0
  0
SOLID
  5
2504
330
24FF
100
AcDbEntity
  8
cotes
 62
     0
100
AcDbTrace
 10
1308.903659615881
 20
581.4119851409843
 30
0.0
 11
1309.381639979507
 21
580.7293584374101
 31
0.0
 12
1307.094769686972
 22
579.6367306983196
 32
0.0
 13
1307.094769686972
 23
579.6367306983196
 33
0.0
  0
MTEXT
  5
2505
330
24FF
100
AcDbEntity
  8
cotes
 62
     0
100
AcDbMText
 10
1317.157219698561
 20
589.2258144425461
 30
0.0
 40
2.5
 41
0.0
 71
     5
 72
     1
  1
27,49
 11
0.8191520442889871
 21
0.5735764363510528
 31
0.0
 73
     1
 44
1.0
  0
POINT
  5
2506
330
24FF
100
AcDbEntity
  8
Defpoints
 62
     0
100
AcDbPoint
 10
1307.906487901089
 20
626.3969802912327
 30
0.0
  0
POINT
  5
2507
330
24FF
100
AcDbEntity
  8
Defpoints
 62
     0
100
AcDbPoint
 10
1285.39168605978
 20
610.6319463206503
 30
0.0
  0
POINT
  5
2508
330
24FF
100
AcDbEntity
  8
Defpoints
 62
     0
100
AcDbPoint
 10
1307.094769686972
 20
579.6367306983196
 30
0.0
  0
ENDBLK
  5
250A
330
24FF
100
AcDbEntity
  8
0
100
AcDbBlockEnd
  0
BLOCK
  5
253C
330
2532
100
AcDbEntity
  8
0
100
AcDbBlockBegin
  2
*D55
 70
     1
 10
0.0
 20
0.0
 30
0.0
  3
*D55
  1

  0
LINE
  5
25B8
330
2532
100
AcDbEntity
  8
cotes
 62
     0
370
    -2
100
AcDbLine
 10
1004.596754782446
 20
529.4017127882598
 30
0.0
 11
1025.609347958667
 21
459.8567717019889
 31
0.0
  0
LINE
  5
25B9
330
2532
100
AcDbEntity
  8
cotes
 62
     0
370
    -2
100
AcDbLine
 10
1672.134506477791
 20
731.0943015955936
 30
0.0
 11
1693.147099654012
 21
661.5493605093227
 31
0.0
  0
LINE
  5
25BA
330
2532
100
AcDbEntity
  8
cotes
 62
     0
370
    -2
100
AcDbLine
 10
1027.640958911236
 20
461.7764219142416
 30
0.0
 11
1690.392412912668
 21
662.0228591440263
 31
0.0
  0
SOLID
  5
25BB
330
2532
100
AcDbEntity
  8
cotes
 62
     0
100
AcDbTrace
 10
1027.520446279774
 20
462.175280055401
 30
0.0
 11
1027.761471542699
 21
461.3775637730822
 31
0.0
 12
1025.24781006428
 22
461.0533461254671
 32
0.0
 13
1025.24781006428
 23
461.0533461254671
 33
0.0
  0
SOLID
  5
25BC
330
2532
100
AcDbEntity
  8
cotes
 62
     0
100
AcDbTrace
 10
1690.271900281206
 20
662.4217172851857
 30
0.0
 11
1690.512925544131
 21
661.624001002867
 31
0.0
 12
1692.785561759625
 22
662.745934932801
 32
0.0
 13
1692.785561759625
 23
662.745934932801
 33
0.0
  0
MTEXT
  5
25BD
330
2532
100
AcDbEntity
  8
cotes
 62
     0
100
AcDbMText
 10
1358.41412275464
 20
563.8939312349309
 30
0.0
 40
2.5
 41
0.0
 71
     5
 72
     1
  1
697,34
 11
0.9572595387825042
 21
0.2892303155098159
 31
0.0
 73
     1
 44
1.0
  0
POINT
  5
25BE
330
2532
100
AcDbEntity
  8
Defpoints
 62
     0
100
AcDbPoint
 10
1004.415985835252
 20
529.9999999999989
 30
0.0
  0
POINT
  5
25BF
330
2532
100
AcDbEntity
  8
Defpoints
 62
     0
100
AcDbPoint
 10
1671.953737530597
 20
731.6925888073326
 30
0.0
  0
POINT
  5
25C0
330
2532
100
AcDbEntity
  8
Defpoints
 62
     0
100
AcDbPoint
 10
1692.785561759625
 20
662.745934932801
 30
0.0
  0
ENDBLK
  5
253D
330
2532
100
AcDbEntity
  8
0
100
AcDbBlockEnd
  0
BLOCK
  5
25B5
330
25AB
100
AcDbEntity
  8
0
100
AcDbBlockBegin
  2
*D56
 70
     1
 10
0.0
 20
0.0
 30
0.0
  3
*D56
  1

  0
LINE
  5
25AC
330
25AB
100
AcDbEntity
  8
cotes
 62
     0
370
    -2
100
AcDbLine
 10
1450.342152493897
 20
382.6605626652869
 30
0.0
 11
1431.040776196995
 21
369.1455934843738
 31
0.0
  0
LINE
  5
25AD
330
25AB
100
AcDbEntity
  8
cotes
 62
     0
370
    -2
100
AcDbLine
 10
1262.95214074224
 20
650.2812344317973
 30
0.0
 11
1243.650764445338
 21
636.7662652508841
 31
0.0
  0
LINE
  5
25AE
330
25AB
100
AcDbEntity
  8
cotes
 62
     0
370
    -2
100
AcDbLine
 10
1430.630775161479
 20
371.9104441405351
 30
0.0
 11
1246.108645591577
 21
635.4353556856006
 31
0.0
  0
SOLID
  5
25AF
330
25AB
100
AcDbEntity
  8
cotes
 62
     0
100
AcDbTrace
 10
1430.972088513266
 20
372.1494343223482
 30
0.0
 11
1430.289461809691
 21
371.6714539587222
 31
0.0
 12
1432.064716252356
 22
369.8625640298126
 32
0.0
 13
1432.064716252356
 23
369.8625640298126
 33
0.0
  0
SOLID
  5
25B0
330
25AB
100
AcDbEntity
  8
cotes
 62
     0
100
AcDbTrace
 10
1246.449958943364
 20
635.6743458674136
 30
0.0
 11
1245.76733223979
 21
635.1963655037876
 31
0.0
 12
1244.674704500699
 22
637.483235796323
 32
0.0
 13
1244.674704500699
 23
637.483235796323
 33
0.0
  0
MTEXT
  5
25B1
330
25AB
100
AcDbEntity
  8
cotes
 62
     0
100
AcDbMText
 10
1340.076277135463
 20
504.8678508221325
 30
0.0
 40
2.5
 41
0.0
 71
     5
 72
     1
  1
326,7
 11
0.5735764363510463
 21
-0.8191520442889917
 31
0.0
 73
     1
 44
1.0
  0
POINT
  5
25B2
330
25AB
100
AcDbEntity
  8
Defpoints
 62
     0
100
AcDbPoint
 10
1450.854122521578
 20
383.0190479380064
 30
0.0
  0
POINT
  5
25B3
330
25AB
100
AcDbEntity
  8
Defpoints
 62
     0
100
AcDbPoint
 10
1263.464110769921
 20
650.6397197045167
 30
0.0
  0
POINT
  5
25B4
330
25AB
100
AcDbEntity
  8
Defpoints
 62
     0
100
AcDbPoint
 10
1244.674704500699
 20
637.483235796323
 30
0.0
  0
ENDBLK
  5
25B6
330
25AB
100
AcDbEntity
  8
0
100
AcDbBlockEnd
  0
BLOCK
  5
25CF
330
25C5
100
AcDbEntity
  8
0
100
AcDbBlockBegin
  2
*D57
 70
     1
 10
0.0
 20
0.0
 30
0.0
  3
*D57
  1

  0
ARC
  5
25C6
330
25C5
100
AcDbEntity
  8
cotes
 62
     0
370
    -2
100
AcDbCircle
 10
1509.988276026957
 20
438.8892297018584
 30
0.0
 40
41.4559390348154
100
AcDbArc
 50
65.82531753899555
 51
134.4867420821143
  0
SOLID
  5
25C7
330
25C5
100
AcDbEntity
  8
cotes
 62
     0
100
AcDbTrace
 10
1527.147327620932
 20
477.0843386640202
 30
0.0
 11
1526.783292701712
 21
476.3347234146866
 31
0.0
 12
1529.214155909323
 22
475.6174262816956
 32
0.0
 13
1529.214155909323
 23
475.6174262816956
 33
0.0
  0
SOLID
  5
25C8
330
25C5
100
AcDbEntity
  8
cotes
 62
     0
100
AcDbTrace
 10
1481.239074030614
 20
468.1761033669709
 30
0.0
 11
1480.637460070112
 21
468.7527359076528
 31
0.0
 12
1479.208369428317
 22
466.6595777558053
 32
0.0
 13
1479.208369428317
 23
466.6595777558053
 33
0.0
  0
MTEXT
  5
25C9
330
25C5
100
AcDbEntity
  8
cotes
 62
     0
100
AcDbMText
 10
1502.347757877085
 20
481.5412256696951
 30
0.0
 40
2.5
 41
0.0
 71
     5
 72
     1
  1
76°
 11
0.9843312173218043
 21
0.1763293923478867
 31
0.0
 73
     1
 44
1.0
  0
POINT
  5
25CA
330
25C5
100
AcDbEntity
  8
Defpoints
 62
     0
100
AcDbPoint
 10
1511.752793228645
 20
480.3075995430686
 30
0.0
  0
POINT
  5
25CB
330
25C5
100
AcDbEntity
  8
Defpoints
 62
     0
100
AcDbPoint
 10
1270.388665276224
 20
655.0615745663528
 30
0.0
  0
POINT
  5
25CC
330
25C5
100
AcDbEntity
  8
Defpoints
 62
     0
100
AcDbPoint
 10
1655.573410256645
 20
717.0080706499041
 30
0.0
  0
POINT
  5
25CD
330
25C5
100
AcDbEntity
  8
Defpoints
 62
     0
100
AcDbPoint
 10
1518.612058434757
 20
455.3636889970053
 30
0.0
  0
POINT
  5
25CE
330
25C5
100
AcDbEntity
  8
Defpoints
 62
     0
100
AcDbPoint
 10
1496.181926530165
 20
451.3456395240149
 30
0.0
  0
ENDBLK
  5
25D0
330
25C5
100
AcDbEntity
  8
0
100
AcDbBlockEnd
  0
BLOCK
  5
25EA
330
25E0
100
AcDbEntity
  8
0
100
AcDbBlockBegin
  2
*D58
 70
     1
 10
0.0
 20
0.0
 30
0.0
  3
*D58
  1

  0
ARC
  5
25E1
330
25E0
100
AcDbEntity
  8
cotes
 62
     0
370
    -2
100
AcDbCircle
 10
1256.940589261355
 20
645.6451303663242
 30
0.0
 40
20.63612556121401
100
AcDbArc
 50
324.8879377529663
 51
28.05454953499113
  0
SOLID
  5
25E2
330
25E0
100
AcDbEntity
  8
cotes
 62
     0
100
AcDbTrace
 10
1274.147233645989
 20
633.5158322835734
 30
0.0
 11
1273.495828570781
 21
634.0355590121893
 31
0.0
 12
1272.262350922538
 22
631.8214804222573
 32
0.0
 13
1272.262350922538
 23
631.8214804222573
 33
0.0
  0
SOLID
  5
25E3
330
25E0
100
AcDbEntity
  8
cotes
 62
     0
100
AcDbTrace
 10
1274.796811621596
 20
655.1326705449353
 30
0.0
 11
1275.507137738609
 21
655.5684242046266
 31
0.0
 12
1273.844713701028
 22
657.4815257258182
 32
0.0
 13
1273.844713701028
 23
657.4815257258182
 33
0.0
  0
MTEXT
  5
25E4
330
25E0
100
AcDbEntity
  8
cotes
 62
     0
100
AcDbMText
 10
1275.666144345172
 20
644.4903926789718
 30
0.0
 40
2.5
 41
0.0
 71
     5
 72
     1
  1
77°
 11
0.0615494887865238
 21
0.9981040328693786
 31
0.0
 73
     1
 44
1.0
  0
POINT
  5
25E5
330
25E0
100
AcDbEntity
  8
Defpoints
 62
     0
100
AcDbPoint
 10
1276.739990841096
 20
639.8284839732266
 30
0.0
  0
POINT
  5
25E6
330
25E0
100
AcDbEntity
  8
Defpoints
 62
     0
100
AcDbPoint
 10
1485.4639068879
 20
439.4660749298038
 30
0.0
  0
POINT
  5
25E7
330
25E0
100
AcDbEntity
  8
Defpoints
 62
     0
100
AcDbPoint
 10
1282.095548265292
 20
663.2588222842371
 30
0.0
  0
POINT
  5
25E8
330
25E0
100
AcDbEntity
  8
Defpoints
 62
     0
100
AcDbPoint
 10
1245.233706272288
 20
637.4478826484399
 30
0.0
  0
POINT
  5
25E9
330
25E0
100
AcDbEntity
  8
Defpoints
 62
     0
100
AcDbPoint
 10
1256.940589261355
 20
645.6451303663243
 30
0.0
  0
ENDBLK
  5
25EB
330
25E0
100
AcDbEntity
  8
0
100
AcDbBlockEnd
  0
BLOCK
  5
25F7
330
25ED
100
AcDbEntity
  8
0
100
AcDbBlockBegin
  2
*D59
 70
     1
 10
0.0
 20
0.0
 30
0.0
  3
*D59
  1

  0
ARC
  5
25EE
330
25ED
100
AcDbEntity
  8
cotes
 62
     0
370
    -2
100
AcDbCircle
 10
1509.988276026957
 20
438.8892297018584
 30
0.0
 40
127.959144184203
100
AcDbArc
 50
63.48900563334879
 51
136.823053987761
  0
SOLID
  5
25EF
330
25ED
100
AcDbEntity
  8
cotes
 62
     0
100
AcDbTrace
 10
1567.294960069242
 20
553.7643257309265
 30
0.0
 11
1566.915718585434
 21
553.022287765992
 31
0.0
 12
1569.331453222142
 22
552.2555822970379
 32
0.0
 13
1569.331453222142
 23
552.2555822970379
 33
0.0
  0
SOLID
  5
25F0
330
25ED
100
AcDbEntity
  8
cotes
 62
     0
100
AcDbTrace
 10
1416.981459126303
 20
526.1636284069075
 30
0.0
 11
1416.368214533736
 21
526.7278761487128
 31
0.0
 12
1414.982093604604
 22
524.6060185001107
 32
0.0
 13
1414.982093604604
 23
524.6060185001107
 33
0.0
  0
MTEXT
  5
25F1
330
25ED
100
AcDbEntity
  8
cotes
 62
     0
100
AcDbMText
 10
1487.094700276948
 20
566.6890308966296
 30
0.0
 40
2.5
 41
0.0
 71
     5
 72
     1
  1
76°
 11
0.9843312173218043
 21
0.1763293923478867
 31
0.0
 73
     1
 44
1.0
  0
POINT
  5
25F2
330
25ED
100
AcDbEntity
  8
Defpoints
 62
     0
100
AcDbPoint
 10
1515.434687718094
 20
566.7324116868368
 30
0.0
  0
POINT
  5
25F3
330
25ED
100
AcDbEntity
  8
Defpoints
 62
     0
100
AcDbPoint
 10
1270.388665276224
 20
655.0615745663528
 30
0.0
  0
POINT
  5
25F4
330
25ED
100
AcDbEntity
  8
Defpoints
 62
     0
100
AcDbPoint
 10
1655.573410256645
 20
717.0080706499041
 30
0.0
  0
POINT
  5
25F5
330
25ED
100
AcDbEntity
  8
Defpoints
 62
     0
100
AcDbPoint
 10
1518.612058434757
 20
455.3636889970053
 30
0.0
  0
POINT
  5
25F6
330
25ED
100
AcDbEntity
  8
Defpoints
 62
     0
100
AcDbPoint
 10
1496.181926530165
 20
451.3456395240149
 30
0.0
  0
ENDBLK
  5
25F8
330
25ED
100
AcDbEntity
  8
0
100
AcDbBlockEnd
  0
BLOCK
  5
261B
330
2611
100
AcDbEntity
  8
0
100
AcDbBlockBegin
  2
*D60
 70
     1
 10
0.0
 20
0.0
 30
0.0
  3
*D60
  1

  0
LINE
  5
261D
330
2611
100
AcDbEntity
  8
cotes
 62
     0
370
    -2
100
AcDbLine
 10
1226.822870844495
 20
701.8988028009858
 30
0.0
 11
1192.850441336893
 21
666.8539570583626
 31
0.0
  0
LINE
  5
261E
330
2611
100
AcDbEntity
  8
cotes
 62
     0
370
    -2
100
AcDbLine
 10
1511.855503673963
 20
425.5885260407082
 30
0.0
 11
1477.88307416636
 21
390.5436802980848
 31
0.0
  0
LINE
  5
261F
330
2611
100
AcDbEntity
  8
cotes
 62
     0
370
    -2
100
AcDbLine
 10
1195.51550416998
 20
666.0113776284579
 30
0.0
 11
1476.958100010431
 21
393.181278222497
 31
0.0
  0
SOLID
  5
2620
330
2611
100
AcDbEntity
  8
cotes
 62
     0
100
AcDbTrace
 10
1195.805518949506
 20
666.3105473775426
 30
0.0
 11
1195.225489390453
 21
665.7122078793733
 31
0.0
 12
1193.720485675472
 22
667.7514663056164
 32
0.0
 13
1193.720485675472
 23
667.7514663056164
 33
0.0
  0
SOLID
  5
2621
330
2611
100
AcDbEntity
  8
cotes
 62
     0
100
AcDbTrace
 10
1477.248114789958
 20
393.4804479715818
 30
0.0
 11
1476.668085230905
 21
392.8821084734124
 31
0.0
 12
1478.753118504939
 22
391.4411895453385
 32
0.0
 13
1478.753118504939
 23
391.4411895453385
 33
0.0
  0
MTEXT
  5
2622
330
2611
100
AcDbEntity
  8
cotes
 62
     0
100
AcDbMText
 10
1337.686875987838
 20
531.0921766709006
 30
0.0
 40
2.5
 41
0.0
 71
     5
 72
     1
  1
396,98
 11
0.7180073978030796
 21
-0.6960354708634111
 31
0.0
 73
     1
 44
1.0
  0
POINT
  5
2623
330
2611
100
AcDbEntity
  8
Defpoints
 62
     0
100
AcDbPoint
 10
1227.257893013785
 20
702.3475574246129
 30
0.0
  0
POINT
  5
2624
330
2611
100
AcDbEntity
  8
Defpoints
 62
     0
100
AcDbPoint
 10
1512.290525843252
 20
426.0372806643351
 30
0.0
  0
POINT
  5
2625
330
2611
100
AcDbEntity
  8
Defpoints
 62
     0
100
AcDbPoint
 10
1478.753118504939
 20
391.4411895453385
 30
0.0
  0
ENDBLK
  5
261C
330
2611
100
AcDbEntity
  8
0
100
AcDbBlockEnd
  0
BLOCK
  5
2631
330
2627
100
AcDbEntity
  8
0
100
AcDbBlockBegin
  2
*D61
 70
     1
 10
0.0
 20
0.0
 30
0.0
  3
*D61
  1

  0
LINE
  5
2628
330
2627
100
AcDbEntity
  8
cotes
 62
     0
370
    -2
100
AcDbLine
 10
1227.728068229925
 20
703.3216392561285
 30
0.0
 11
1265.571717966625
 21
728.9924088401187
 31
0.0
  0
LINE
  5
2629
330
2627
100
AcDbEntity
  8
cotes
 62
     0
370
    -2
100
AcDbLine
 10
1263.469369294176
 20
650.6320899933353
 30
0.0
 11
1301.313019030876
 21
676.3028595773255
 31
0.0
  0
LINE
  5
262A
330
2627
100
AcDbEntity
  8
cotes
 62
     0
370
    -2
100
AcDbLine
 10
1265.940683108905
 20
726.2217835092985
 30
0.0
 11
1298.875139680853
 21
677.6700626619942
 31
0.0
  0
SOLID
  5
262B
330
2627
100
AcDbEntity
  8
cotes
 62
     0
100
AcDbTrace
 10
1266.285502143529
 20
726.4556872169905
 30
0.0
 11
1265.59586407428
 21
725.9878798016066
 31
0.0
 12
1264.537260862753
 22
728.290697717043
 32
0.0
 13
1264.537260862753
 23
728.290697717043
 33
0.0
  0
SOLID
  5
262C
330
2627
100
AcDbEntity
  8
cotes
 62
     0
100
AcDbTrace
 10
1299.219958715477
 20
677.9039663696862
 30
0.0
 11
1298.530320646229
 21
677.4361589543023
 31
0.0
 12
1300.278561927004
 22
675.6011484542498
 32
0.0
 13
1300.278561927004
 23
675.6011484542498
 33
0.0
  0
MTEXT
  5
262D
330
2627
100
AcDbEntity
  8
cotes
 62
     0
100
AcDbMText
 10
1284.132006567999
 20
703.115441624106
 30
0.0
 40
2.5
 41
0.0
 71
     5
 72
     1
  1
63,67
 11
0.5613688984606204
 21
-0.827565683097789
 31
0.0
 73
     1
 44
1.0
  0
POINT
  5
262E
330
2627
100
AcDbEntity
  8
Defpoints
 62
     0
100
AcDbPoint
 10
1227.210839677989
 20
702.9707836945905
 30
0.0
  0
POINT
  5
262F
330
2627
100
AcDbEntity
  8
Defpoints
 62
     0
100
AcDbPoint
 10
1262.95214074224
 20
650.2812344317973
 30
0.0
  0
POINT
  5
2630
330
2627
100
AcDbEntity
  8
Defpoints
 62
     0
100
AcDbPoint
 10
1300.278561927004
 20
675.6011484542498
 30
0.0
  0
ENDBLK
  5
2632
330
2627
100
AcDbEntity
  8
0
100
AcDbBlockEnd
  0
BLOCK
  5
266B
330
2661
100
AcDbEntity
  8
0
100
AcDbBlockBegin
  2
*D62
 70
     1
 10
0.0
 20
0.0
 30
0.0
  3
*D62
  1

  0
LINE
  5
26ED
330
2661
100
AcDbEntity
  8
cotes
 62
     0
370
    -2
100
AcDbLine
 10
1118.001444338459
 20
859.4715910712647
 30
0.0
 11
1146.603414061082
 21
879.4989058786907
 31
0.0
  0
LINE
  5
26EE
330
2661
100
AcDbEntity
  8
cotes
 62
     0
370
    -2
100
AcDbLine
 10
1158.151794883033
 20
802.130947971035
 30
0.0
 11
1186.753764605655
 21
822.1582627784609
 31
0.0
  0
LINE
  5
26EF
330
2661
100
AcDbEntity
  8
cotes
 62
     0
370
    -2
100
AcDbLine
 10
1147.013415096598
 20
876.7340552225293
 30
0.0
 11
1184.295883459416
 21
823.4891723437447
 31
0.0
  0
SOLID
  5
26F0
330
2661
100
AcDbEntity
  8
cotes
 62
     0
100
AcDbTrace
 10
1147.354728448385
 20
876.9730454043424
 30
0.0
 11
1146.672101744811
 21
876.4950650407163
 31
0.0
 12
1145.579474005721
 22
878.7819353332519
 32
0.0
 13
1145.579474005721
 23
878.7819353332519
 33
0.0
  0
SOLID
  5
26F1
330
2661
100
AcDbEntity
  8
cotes
 62
     0
100
AcDbTrace
 10
1184.637196811203
 20
823.7281625255576
 30
0.0
 11
1183.954570107629
 21
823.2501821619317
 31
0.0
 12
1185.729824550294
 22
821.4412922330222
 32
0.0
 13
1185.729824550294
 23
821.4412922330222
 33
0.0
  0
MTEXT
  5
26F2
330
2661
100
AcDbEntity
  8
cotes
 62
     0
100
AcDbMText
 10
1167.190559361049
 20
851.1870696012953
 30
0.0
 40
2.5
 41
0.0
 71
     5
 72
     1
  1
70
 11
0.5735764363510448
 21
-0.8191520442889926
 31
0.0
 73
     1
 44
1.0
  0
POINT
  5
26F3
330
2661
100
AcDbEntity
  8
Defpoints
 62
     0
100
AcDbPoint
 10
1117.489474310779
 20
859.1131057985451
 30
0.0
  0
POINT
  5
26F4
330
2661
100
AcDbEntity
  8
Defpoints
 62
     0
100
AcDbPoint
 10
1157.639824855352
 20
801.7724626983154
 30
0.0
  0
POINT
  5
26F5
330
2661
100
AcDbEntity
  8
Defpoints
 62
     0
100
AcDbPoint
 10
1185.729824550294
 20
821.4412922330222
 30
0.0
  0
ENDBLK
  5
266C
330
2661
100
AcDbEntity
  8
0
100
AcDbBlockEnd
  0
BLOCK
  5
2681
330
2677
100
AcDbEntity
  8
0
100
AcDbBlockBegin
  2
*D63
 70
     1
 10
0.0
 20
0.0
 30
0.0
  3
*D63
  1

  0
LINE
  5
26E4
330
2677
100
AcDbEntity
  8
cotes
 62
     0
370
    -2
100
AcDbLine
 10
1219.588198204707
 20
845.1491806973635
 30
0.0
 11
1240.323167821114
 21
859.6679627273211
 31
0.0
  0
LINE
  5
26E5
330
2677
100
AcDbEntity
  8
cotes
 62
     0
370
    -2
100
AcDbLine
 10
1118.790304741658
 20
989.1034913304217
 30
0.0
 11
1139.525274358065
 21
1003.622273360379
 31
0.0
  0
LINE
  5
26E6
330
2677
100
AcDbEntity
  8
cotes
 62
     0
370
    -2
100
AcDbLine
 10
1237.865286674876
 20
860.9988722926047
 30
0.0
 11
1139.935275393581
 21
1000.857422704217
 31
0.0
  0
SOLID
  5
26E7
330
2677
100
AcDbEntity
  8
cotes
 62
     0
100
AcDbTrace
 10
1238.206600026663
 20
861.2378624744179
 30
0.0
 11
1237.523973323088
 21
860.7598821107918
 31
0.0
 12
1239.299227765753
 22
858.9509921818823
 32
0.0
 13
1239.299227765753
 23
858.9509921818823
 33
0.0
  0
SOLID
  5
26E8
330
2677
100
AcDbEntity
  8
cotes
 62
     0
100
AcDbTrace
 10
1140.276588745369
 20
1001.096412886031
 30
0.0
 11
1139.593962041794
 21
1000.618432522405
 31
0.0
 12
1138.501334302704
 22
1002.90530281494
 32
0.0
 13
1138.501334302704
 23
1002.90530281494
 33
0.0
  0
MTEXT
  5
26E9
330
2677
100
AcDbEntity
  8
cotes
 62
     0
100
AcDbMText
 10
1190.606847793164
 20
932.1230984074761
 30
0.0
 40
2.5
 41
0.0
 71
     5
 72
     1
  1
175,74
 11
0.5735764363510456
 21
-0.819152044288992
 31
0.0
 73
     1
 44
1.0
  0
POINT
  5
26EA
330
2677
100
AcDbEntity
  8
Defpoints
 62
     0
100
AcDbPoint
 10
1219.076228177027
 20
844.7906954246441
 30
0.0
  0
POINT
  5
26EB
330
2677
100
AcDbEntity
  8
Defpoints
 62
     0
100
AcDbPoint
 10
1118.278334713977
 20
988.7450060577021
 30
0.0
  0
POINT
  5
26EC
330
2677
100
AcDbEntity
  8
Defpoints
 62
     0
100
AcDbPoint
 10
1138.501334302704
 20
1002.90530281494
 30
0.0
  0
ENDBLK
  5
2682
330
2677
100
AcDbEntity
  8
0
100
AcDbBlockEnd
  0
BLOCK
  5
26D2
330
26C7
100
AcDbEntity
  8
0
100
AcDbBlockBegin
  2
*D65
 70
     1
 10
0.0
 20
0.0
 30
0.0
  3
*D65
  1

  0
LINE
  5
26C8
330
26C7
100
AcDbEntity
  8
cotes
 62
     0
370
    -2
100
AcDbLine
 10
1104.024556329435
 20
850.4478528446091
 30
0.0
 11
1084.909731933559
 21
877.746651204805
 31
0.0
  0
ARC
  5
26C9
330
26C7
100
AcDbEntity
  8
cotes
 62
     0
370
    -2
100
AcDbCircle
 10
1140.381137135617
 20
798.5252744343027
 30
0.0
 40
95.46144364812631
100
AcDbArc
 50
126.5005381957553
 51
153.7849469303286
  0
SOLID
  5
26CA
330
26C7
100
AcDbEntity
  8
cotes
 62
     0
100
AcDbTrace
 10
1083.354335435263
 20
875.6002321386574
 30
0.0
 11
1083.841213333017
 21
874.9239227737044
 31
0.0
 12
1085.626702478998
 22
876.7227111494436
 32
0.0
 13
1085.626702478998
 23
876.7227111494436
 33
0.0
  0
SOLID
  5
26CB
330
26C7
100
AcDbEntity
  8
cotes
 62
     0
100
AcDbTrace
 10
1055.114821221857
 20
840.5154140171415
 30
0.0
 11
1054.362446454099
 21
840.8737108958408
 31
0.0
 12
1053.66374320188
 22
838.4374381532175
 32
0.0
 13
1053.66374320188
 23
838.4374381532175
 33
0.0
  0
MTEXT
  5
26CC
330
26C7
100
AcDbEntity
  8
cotes
 62
     0
100
AcDbMText
 10
1065.661452872448
 20
860.9059769445924
 30
0.0
 40
2.5
 41
0.0
 71
     5
 72
     1
  1
30°
 11
0.6408771491158803
 21
0.7676434587366079
 31
0.0
 73
     1
 44
1.0
  0
POINT
  5
26CD
330
26C7
100
AcDbEntity
  8
Defpoints
 62
     0
100
AcDbPoint
 10
1072.767684015573
 20
865.9145033998289
 30
0.0
  0
POINT
  5
26CE
330
26C7
100
AcDbEntity
  8
Defpoints
 62
     0
100
AcDbPoint
 10
1104.383041602155
 20
849.9358828169283
 30
0.0
  0
POINT
  5
26CF
330
26C7
100
AcDbEntity
  8
Defpoints
 62
     0
100
AcDbPoint
 10
1140.381137135616
 20
798.5252744343028
 30
0.0
  0
POINT
  5
26D0
330
26C7
100
AcDbEntity
  8
Defpoints
 62
     0
100
AcDbPoint
 10
970.5547856811683
 20
876.6887989080116
 30
0.0
  0
POINT
  5
26D1
330
26C7
100
AcDbEntity
  8
Defpoints
 62
     0
100
AcDbPoint
 10
1144.533392146728
 20
792.5952397166986
 30
0.0
  0
ENDBLK
  5
26D3
330
26C7
100
AcDbEntity
  8
0
100
AcDbBlockEnd
  0
BLOCK
  5
2710
330
2706
100
AcDbEntity
  8
0
100
AcDbBlockBegin
  2
*D68
 70
     1
 10
0.0
 20
0.0
 30
0.0
  3
*D68
  1

  0
LINE
  5
2707
330
2706
100
AcDbEntity
  8
cotes
 62
     0
370
    -2
100
AcDbLine
 10
982.5228184574704
 20
902.6918144343957
 30
0.0
 11
991.0314050304171
 21
921.1784707545552
 31
0.0
  0
LINE
  5
2708
330
2706
100
AcDbEntity
  8
cotes
 62
     0
370
    -2
100
AcDbLine
 10
1108.796607372574
 20
844.5735995300317
 30
0.0
 11
1117.305193945521
 21
863.0602558501912
 31
0.0
  0
LINE
  5
2709
330
2706
100
AcDbEntity
  8
cotes
 62
     0
370
    -2
100
AcDbLine
 10
992.7797892346296
 20
918.9977248559094
 30
0.0
 11
1114.511566704077
 21
862.9699960260088
 31
0.0
  0
SOLID
  5
270A
330
2706
100
AcDbEntity
  8
cotes
 62
     0
100
AcDbTrace
 10
992.9539964075015
 20
919.3762258097139
 30
0.0
 11
992.6055820617575
 21
918.6192239021044
 31
0.0
 12
990.5087835118013
 22
920.042967893141
 32
0.0
 13
990.5087835118013
 23
920.042967893141
 33
0.0
  0
SOLID
  5
270B
330
2706
100
AcDbEntity
  8
cotes
 62
     0
100
AcDbTrace
 10
1114.685773876949
 20
863.3484969798134
 30
0.0
 11
1114.337359531205
 21
862.5914950722039
 31
0.0
 12
1116.782572426905
 22
861.924752988777
 32
0.0
 13
1116.782572426905
 23
861.924752988777
 33
0.0
  0
MTEXT
  5
270C
330
2706
100
AcDbEntity
  8
cotes
 62
     0
100
AcDbMText
 10
1054.516713833713
 20
892.8763652099824
 30
0.0
 40
2.5
 41
0.0
 71
     5
 72
     1
  1
139,01
 11
0.9084022891313059
 21
-0.4180972148926648
 31
0.0
 73
     1
 44
1.0
  0
POINT
  5
270D
330
2706
100
AcDbEntity
  8
Defpoints
 62
     0
100
AcDbPoint
 10
982.2615076981627
 20
902.1240630036885
 30
0.0
  0
POINT
  5
270E
330
2706
100
AcDbEntity
  8
Defpoints
 62
     0
100
AcDbPoint
 10
1108.535296613266
 20
844.0058480993245
 30
0.0
  0
POINT
  5
270F
330
2706
100
AcDbEntity
  8
Defpoints
 62
     0
100
AcDbPoint
 10
1116.782572426905
 20
861.924752988777
 30
0.0
  0
ENDBLK
  5
2711
330
2706
100
AcDbEntity
  8
0
100
AcDbBlockEnd
  0
BLOCK
  5
271D
330
2713
100
AcDbEntity
  8
0
100
AcDbBlockBegin
  2
*D69
 70
     1
 10
0.0
 20
0.0
 30
0.0
  3
*D69
  1

  0
LINE
  5
2714
330
2713
100
AcDbEntity
  8
cotes
 62
     0
370
    -2
100
AcDbLine
 10
970.2934749218602
 20
876.1210474773045
 30
0.0
 11
966.9677995933632
 21
868.8953330412735
 31
0.0
  0
LINE
  5
2715
330
2713
100
AcDbEntity
  8
cotes
 62
     0
370
    -2
100
AcDbLine
 10
1140.119826376309
 20
797.9575230035955
 30
0.0
 11
1136.794151047812
 21
790.7318085675645
 31
0.0
  0
LINE
  5
2716
330
2713
100
AcDbEntity
  8
cotes
 62
     0
370
    -2
100
AcDbLine
 10
969.7614268348072
 20
868.9855928654559
 30
0.0
 11
1135.045766843599
 21
792.9125544662103
 31
0.0
  0
SOLID
  5
2717
330
2713
100
AcDbEntity
  8
cotes
 62
     0
100
AcDbTrace
 10
969.9356340076793
 20
869.3640938192606
 30
0.0
 11
969.5872196619353
 21
868.6070919116511
 31
0.0
 12
967.4904211119789
 22
870.0308359026875
 32
0.0
 13
967.4904211119789
 23
870.0308359026875
 33
0.0
  0
SOLID
  5
2718
330
2713
100
AcDbEntity
  8
cotes
 62
     0
100
AcDbTrace
 10
1135.219974016471
 20
793.291055420015
 30
0.0
 11
1134.871559670727
 21
792.5340535124055
 31
0.0
 12
1137.316772566427
 22
791.8673114289786
 32
0.0
 13
1137.316772566427
 23
791.8673114289786
 33
0.0
  0
MTEXT
  5
2719
330
2713
100
AcDbEntity
  8
cotes
 62
     0
100
AcDbMText
 10
1053.274632703563
 20
832.8415784348564
 30
0.0
 40
2.5
 41
0.0
 71
     5
 72
     1
  1
186,95
 11
0.9084022891313058
 21
-0.4180972148926658
 31
0.0
 73
     1
 44
1.0
  0
POINT
  5
271A
330
2713
100
AcDbEntity
  8
Defpoints
 62
     0
100
AcDbPoint
 10
970.5547856811682
 20
876.6887989080116
 30
0.0
  0
POINT
  5
271B
330
2713
100
AcDbEntity
  8
Defpoints
 62
     0
100
AcDbPoint
 10
1140.381137135616
 20
798.5252744343027
 30
0.0
  0
POINT
  5
271C
330
2713
100
AcDbEntity
  8
Defpoints
 62
     0
100
AcDbPoint
 10
1137.316772566427
 20
791.8673114289786
 30
0.0
  0
ENDBLK
  5
271E
330
2713
100
AcDbEntity
  8
0
100
AcDbBlockEnd
  0
ENDSEC
  0
SECTION
  2
ENTITIES
  0
XLINE
  5
2B
330
1F
100
AcDbEntity
  8
0
100
AcDbXline
 10
0.0
 20
100.0
 30
0.0
 11
1.0
 21
0.0
 31
0.0
  0
CIRCLE
  5
DE
330
1F
100
AcDbEntity
  8
Transmission
100
AcDbCircle
 10
1670.778993828547
 20
730.0
 30
0.0
 40
170.0
  0
CIRCLE
  5
E4
330
1F
100
AcDbEntity
  8
Transmission
100
AcDbCircle
 10
1670.778993828547
 20
730.0
 30
0.0
 40
100.0
  0
CIRCLE
  5
E6
330
1F
100
AcDbEntity
  8
Transmission
100
AcDbCircle
 10
1670.778993828547
 20
730.0
 30
0.0
 40
61.0
  0
CIRCLE
  5
91B
330
1F
100
AcDbEntity
  8
roues
100
AcDbCircle
 10
300.0
 20
416.2435537077213
 30
0.0
 40
310.0
  0
CIRCLE
  5
A74
330
1F
100
AcDbEntity
  8
Transmission
100
AcDbCircle
 10
1512.290525843252
 20
426.0372806643348
 30
0.0
 40
64.0
  0
CIRCLE
  5
A75
330
1F
100
AcDbEntity
  8
Transmission
100
AcDbCircle
 10
1512.290525843252
 20
426.0372806643348
 30
0.0
 40
23.0
  0
CIRCLE
  5
1358
330
1F
100
AcDbEntity
  8
direction
100
AcDbCircle
 10
1670.778993828547
 20
730.0
 30
0.0
 40
20.0
  0
XLINE
  5
17F7
330
1F
100
AcDbEntity
  8
0
100
AcDbXline
 10
0.0
 20
970.0
 30
0.0
 11
1.0
 21
0.0
 31
0.0
  0
LINE
  5
1A87
330
1F
100
AcDbEntity
  8
s
100
AcDbLine
 10
617.4691030123168
 20
688.2180297798705
 30
0.0
 11
925.6137506047771
 21
544.5278207880329
 31
0.0
  0
DIMENSION
  5
1B22
330
1F
100
AcDbEntity
  8
cotes
100
AcDbDimension
  2
*D1
 10
300.0
 20
14.25148209933013
 30
0.0
 11
900.0
 21
19.87648209933013
 31
0.0
 70
    32
 71
     5
 42
1200.0
  3
ISO-25
100
AcDbAlignedDimension
 13
1500.0
 23
105.75
 33
0.0
 14
300.0
 24
100.0
 34
0.0
100
AcDbRotatedDimension
1001
ACAD
1000
DSTYLE
1002
{
1070
   140
1040
10.0
1002
}
  0
XLINE
  5
1B2F
330
1F
100
AcDbEntity
  8
0
100
AcDbXline
 10
300.0
 20
422.4935537077213
 30
0.0
 11
0.0
 21
1.0
 31
0.0
  0
CIRCLE
  5
1B77
330
1F
100
AcDbEntity
  8
roues
100
AcDbCircle
 10
1512.290525843252
 20
426.0372806643348
 30
0.0
 40
310.0
  0
CIRCLE
  5
1B93
330
1F
100
AcDbEntity
  8
s
100
AcDbCircle
 10
1004.415985835376
 20
529.9999999999989
 30
0.0
 40
20.0
  0
LINE
  5
1B94
330
1F
100
AcDbEntity
  8
s
100
AcDbLine
 10
1004.415985835376
 20
549.999999999999
 30
0.0
 11
1004.415985835376
 21
509.9999999999988
 31
0.0
  0
LINE
  5
1B95
330
1F
100
AcDbEntity
  8
s
100
AcDbLine
 10
984.4159858353764
 20
529.9999999999989
 30
0.0
 11
1024.415985835376
 21
529.9999999999989
 31
0.0
  0
XLINE
  5
1C46
330
1F
100
AcDbEntity
  8
0
100
AcDbXline
 10
1645.0
 20
105.75
 30
0.0
 11
-0.5735764363510462
 21
0.8191520442889917
 31
0.0
  0
DIMENSION
  5
1C6F
330
1F
100
AcDbEntity
  8
cotes
100
AcDbDimension
  2
*D2
 10
1637.796768531154
 20
31.61445737173244
 30
0.0
 11
1575.043647187203
 21
38.07279070506577
 31
0.0
 70
    32
 71
     5
 42
125.506242687901
  3
ISO-25
100
AcDbAlignedDimension
 13
1512.290525843252
 23
116.0372806643348
 33
0.0
 14
1637.796768531154
 24
116.0372806643348
 34
0.0
100
AcDbRotatedDimension
1001
ACAD
1000
DSTYLE
1002
{
1070
   140
1040
10.0
1002
}
  0
LINE
  5
1C92
330
1F
100
AcDbEntity
  8
cadre
100
AcDbLine
 10
618.8604751438913
 20
621.2818295985795
 30
0.0
 11
932.5935407805699
 21
474.9856984757512
 31
0.0
  0
LINE
  5
1C93
330
1F
100
AcDbEntity
  8
cadre
100
AcDbLine
 10
606.2522776850853
 20
654.7455766032132
 30
0.0
 11
631.4686726026974
 21
587.8180825939454
 31
0.0
  0
LINE
  5
1C94
330
1F
100
AcDbEntity
  8
cadre
100
AcDbLine
 10
631.4686726026974
 20
587.8180825939454
 30
0.0
 11
927.0205044967713
 21
450.0
 31
0.0
  0
LINE
  5
1C95
330
1F
100
AcDbEntity
  8
cadre
100
AcDbLine
 10
927.0205044967713
 20
450.0
 30
0.0
 11
938.1052376289181
 21
500.0
 31
0.0
  0
LINE
  5
1C96
330
1F
100
AcDbEntity
  8
cadre
100
AcDbLine
 10
938.1052376289181
 20
500.0
 30
0.0
 11
606.2522776850853
 21
654.7455766032132
 31
0.0
  0
LINE
  5
1C97
330
1F
100
AcDbEntity
  8
cadre
100
AcDbLine
 10
938.1052376289181
 20
500.0
 30
0.0
 11
1127.004960822857
 21
500.0
 31
0.0
  0
LINE
  5
1C98
330
1F
100
AcDbEntity
  8
cadre
100
AcDbLine
 10
1127.004960822857
 20
500.0
 30
0.0
 11
1162.015337733343
 21
450.0
 31
0.0
  0
LINE
  5
1C9B
330
1F
100
AcDbEntity
  8
cadre
100
AcDbLine
 10
1227.257893013785
 20
702.3475574246129
 30
0.0
 11
1144.5101492781
 21
475.0
 31
0.0
  0
LINE
  5
1C9D
330
1F
100
AcDbEntity
  8
cadre
100
AcDbLine
 10
1162.015337733343
 20
450.0
 30
0.0
 11
1244.763081469028
 21
677.347557424613
 31
0.0
  0
LINE
  5
1C9E
330
1F
100
AcDbEntity
  8
cadre
100
AcDbLine
 10
1244.763081469028
 20
677.347557424613
 30
0.0
 11
1209.752704558543
 21
727.347557424613
 31
0.0
  0
LINE
  5
1C9F
330
1F
100
AcDbEntity
  8
cadre
100
AcDbLine
 10
1209.752704558543
 20
727.347557424613
 30
0.0
 11
1127.004960822857
 21
499.9999999999999
 31
0.0
  0
LINE
  5
1CB8
330
1F
100
AcDbEntity
  8
cadre
100
AcDbLine
 10
654.2235731734624
 20
610.3261378684749
 30
0.0
 11
320.0
 21
446.0696196354412
 31
0.0
  0
LINE
  5
1CB9
330
1F
100
AcDbEntity
  8
cadre
100
AcDbLine
 10
657.7521283576452
 20
603.1463538666976
 30
0.0
 11
320.0
 21
437.1557024501671
 31
0.0
  0
LINE
  5
1CBA
330
1F
100
AcDbEntity
  8
cadre
100
AcDbLine
 10
661.280683541828
 20
595.9665698649202
 30
0.0
 11
320.0
 21
428.241785264893
 31
0.0
  0
LINE
  5
1CBB
330
1F
100
AcDbEntity
  8
cadre
100
AcDbLine
 10
821.3780791235583
 20
523.3208764178827
 30
0.0
 11
320.0
 21
425.0315455327577
 31
0.0
  0
LINE
  5
1CBD
330
1F
100
AcDbEntity
  8
cadre
100
AcDbLine
 10
824.4531406433075
 20
507.619156873521
 30
0.0
 11
320.0
 21
408.9241466150585
 31
0.0
  0
LINE
  5
1CBE
330
1F
100
AcDbEntity
  8
cadre
100
AcDbLine
 10
295.0
 20
416.2435537077213
 30
0.0
 11
305.0
 21
416.2435537077213
 31
0.0
  0
LINE
  5
1CBF
330
1F
100
AcDbEntity
  8
cadre
100
AcDbLine
 10
307.721699810118
 20
456.2435537077212
 30
0.0
 11
275.0
 21
440.5172869901868
 31
0.0
  0
LWPOLYLINE
  5
1CC0
330
1F
100
AcDbEntity
  8
cadre
100
AcDbPolyline
 90
        7
 70
     0
 43
0.0
 10
340.0
 20
406.2435537077212
 10
305.0
 20
406.2435537077212
 10
305.0
 20
416.2435537077213
 42
0.9999999999999998
 10
295.0
 20
416.2435537077213
 10
295.0
 20
406.2435537077212
 10
275.0
 20
406.2435537077212
 10
275.0
 20
440.5172869901868
  0
LINE
  5
1CC1
330
1F
100
AcDbEntity
  8
cadre
100
AcDbLine
 10
300.0
 20
421.2435537077213
 30
0.0
 11
300.0
 21
416.2435537077213
 31
0.0
  0
CIRCLE
  5
1CC2
330
1F
100
AcDbEntity
  8
cadre
100
AcDbCircle
 10
280.0
 20
431.8253540339942
 30
0.0
 40
2.5
  0
CIRCLE
  5
1CC3
330
1F
100
AcDbEntity
  8
cadre
100
AcDbCircle
 10
280.0
 20
416.8253540339943
 30
0.0
 40
2.5
  0
LINE
  5
1CC4
330
1F
100
AcDbEntity
  8
cadre
100
AcDbLine
 10
320.0000000000002
 20
445.705116760881
 30
0.0
 11
320.0
 21
428.6062881394533
 31
0.0
  0
LWPOLYLINE
  5
1CC5
330
1F
100
AcDbEntity
  8
cadre
100
AcDbPolyline
 90
        3
 70
     0
 43
0.0
 10
307.721699810118
 20
456.2435537077212
 10
340.0
 20
456.2435537077212
 10
340.0
 20
406.2435537077212
  0
LINE
  5
1CC6
330
1F
100
AcDbEntity
  8
cadre
100
AcDbLine
 10
320.0
 20
425.0315455327577
 30
0.0
 11
320.0
 21
408.6191625352309
 31
0.0
  0
CIRCLE
  5
1CC7
330
1F
100
AcDbEntity
  8
cadre
100
AcDbCircle
 10
310.0
 20
446.2435537077213
 30
0.0
 40
2.5
  0
CIRCLE
  5
1CC9
330
1F
100
AcDbEntity
  8
cadre
100
AcDbCircle
 10
657.7521283576452
 20
603.1463538666976
 30
0.0
 40
8.0
  0
XLINE
  5
1CCB
330
1F
100
AcDbEntity
  8
0
100
AcDbXline
 10
0.0
 20
413.75
 30
0.0
 11
1.0
 21
0.0
 31
0.0
  0
LINE
  5
1D06
330
1F
100
AcDbEntity
  8
direction
100
AcDbLine
 10
1532.787377073272
 20
447.9434234022614
 30
0.0
 11
1669.973002798682
 21
710.0162471377426
 31
0.0
  0
LINE
  5
1D08
330
1F
100
AcDbEntity
  8
direction
100
AcDbLine
 10
1655.573410256645
 20
717.0080706499041
 30
0.0
 11
1518.612058434757
 21
455.3636889970053
 31
0.0
  0
LINE
  5
1D60
330
1F
100
AcDbEntity
  8
cadre
100
AcDbLine
 10
932.5935407805699
 20
474.9856984757512
 30
0.0
 11
1144.5101492781
 21
475.0
 31
0.0
  0
LINE
  5
1D61
330
1F
100
AcDbEntity
  8
cadre
100
AcDbLine
 10
1162.015337733343
 20
450.0
 30
0.0
 11
927.0205044967713
 21
450.0
 31
0.0
  0
XLINE
  5
1D67
330
1F
100
AcDbEntity
  8
0
100
AcDbXline
 10
-530.0
 20
420.0
 30
0.0
 11
0.0
 21
1.0
 31
0.0
  0
XLINE
  5
1D68
330
1F
100
AcDbEntity
  8
0
100
AcDbXline
 10
0.0
 20
1120.0
 30
0.0
 11
1.0
 21
0.0
 31
0.0
  0
XLINE
  5
1D69
330
1F
100
AcDbEntity
  8
0
100
AcDbXline
 10
0.0
 20
1100.0
 30
0.0
 11
1.0
 21
0.0
 31
0.0
  0
XLINE
  5
1D6A
330
1F
100
AcDbEntity
  8
0
100
AcDbXline
 10
50.0
 20
420.0
 30
0.0
 11
0.0
 21
1.0
 31
0.0
  0
XLINE
  5
1D6B
330
1F
100
AcDbEntity
  8
0
100
AcDbXline
 10
-90.0
 20
420.0
 30
0.0
 11
0.0
 21
1.0
 31
0.0
  0
XLINE
  5
1D6C
330
1F
100
AcDbEntity
  8
0
100
AcDbXline
 10
-250.0
 20
420.0
 30
0.0
 11
0.0
 21
1.0
 31
0.0
  0
LWPOLYLINE
  5
1D73
330
1F
100
AcDbEntity
  8
s
100
AcDbPolyline
 90
        5
 70
     0
 43
0.0
 10
1149.347668715137
 20
581.7886292426098
 42
-0.2633560480880763
 10
922.208815151883
 20
544.2660866585785
 10
798.9291094857572
 20
611.1601263405401
 10
721.0212761869546
 20
642.7471485141242
 42
-0.2807245143949537
 10
459.9430379317309
 20
925.3308465236818
 42
-1.145063840526267
  0
XLINE
  5
1DB0
330
1F
100
AcDbEntity
  8
0
100
AcDbXline
 10
1500.0
 20
782.75
 30
0.0
 11
1.0
 21
0.0
 31
0.0
  0
LINE
  5
1DC0
330
1F
100
AcDbEntity
  8
direction
100
AcDbLine
 10
1144.533392146728
 20
792.5952397166989
 30
0.0
 11
1170.746257563976
 21
810.9496856799326
 31
0.0
  0
LINE
  5
1DC1
330
1F
100
AcDbEntity
  8
direction
100
AcDbLine
 10
1170.746257563976
 20
810.9496856799326
 30
0.0
 11
1207.371876560453
 21
758.6428809144185
 31
0.0
  0
LINE
  5
1DC3
330
1F
100
AcDbEntity
  8
direction
100
AcDbLine
 10
1181.242284073195
 20
740.1695088822034
 30
0.0
 11
1144.533392146728
 21
792.5952397166989
 31
0.0
  0
LINE
  5
1DC4
330
1F
100
AcDbEntity
  8
direction
100
AcDbLine
 10
1161.15659109709
 20
796.75
 30
0.0
 11
1194.92229321817
 21
748.5275798195313
 31
0.0
  0
LINE
  5
1DC5
330
1F
100
AcDbEntity
  8
direction
100
AcDbLine
 10
1170.959496632026
 20
782.75
 30
0.0
 11
1497.520469511569
 21
782.75
 31
0.0
  0
LINE
  5
1DC6
330
1F
100
AcDbEntity
  8
direction
100
AcDbLine
 10
1502.47953048843
 20
796.75
 30
0.0
 11
1497.520469511569
 21
768.75
 31
0.0
  0
LINE
  5
1DC7
330
1F
100
AcDbEntity
  8
direction
100
AcDbLine
 10
1497.520469511569
 20
768.75
 30
0.0
 11
1200.294795587145
 21
768.75
 31
0.0
  0
LINE
  5
1DC8
330
1F
100
AcDbEntity
  8
direction
100
AcDbLine
 10
1180.688984517273
 20
796.75
 30
0.0
 11
1502.47953048843
 21
796.75
 31
0.0
  0
LINE
  5
1DCB
330
1F
100
AcDbEntity
  8
direction
100
AcDbLine
 10
1500.0
 20
782.75
 30
0.0
 11
1670.778993828547
 21
730.0
 31
0.0
  0
LINE
  5
1DCC
330
1F
100
AcDbEntity
  8
direction
100
AcDbLine
 10
1661.263995125724
 20
747.5916116284231
 30
0.0
 11
1502.47953048843
 21
796.75
 31
0.0
  0
LINE
  5
1DCD
330
1F
100
AcDbEntity
  8
direction
100
AcDbLine
 10
1497.520469511569
 20
768.75
 30
0.0
 11
1653.000600900296
 21
720.8387367198238
 31
0.0
  0
LINE
  5
1DCF
330
1F
100
AcDbEntity
  8
direction
100
AcDbLine
 10
1207.371876560453
 20
758.6428809144185
 30
0.0
 11
1181.242284073195
 21
740.1695088822034
 31
0.0
  0
LINE
  5
1DD0
330
1F
100
AcDbEntity
  8
cadre
100
AcDbLine
 10
1218.680252582782
 20
746.8514632276907
 30
0.0
 11
1188.37162694409
 21
725.6291350827019
 31
0.0
  0
LINE
  5
1DD1
330
1F
100
AcDbEntity
  8
cadre
100
AcDbLine
 10
1188.37162694409
 20
725.6291350827019
 30
0.0
 11
1242.774550085933
 21
647.9337088367342
 31
0.0
  0
LINE
  5
1DD2
330
1F
100
AcDbEntity
  8
cadre
100
AcDbLine
 10
1242.774550085933
 20
647.9337088367342
 30
0.0
 11
1273.083175724626
 21
669.156036981723
 31
0.0
  0
LINE
  5
1DD3
330
1F
100
AcDbEntity
  8
cadre
100
AcDbLine
 10
1273.083175724626
 20
669.156036981723
 30
0.0
 11
1218.680252582782
 21
746.8514632276908
 31
0.0
  0
LINE
  5
1E2C
330
1F
100
AcDbEntity
  8
direction
100
AcDbLine
 10
1111.757110054243
 20
842.8915152467405
 30
0.0
 11
1134.693367294336
 21
858.9516554645701
 31
0.0
  0
LINE
  5
1E2D
330
1F
100
AcDbEntity
  8
direction
100
AcDbLine
 10
1134.693367294336
 20
858.9516554645701
 30
0.0
 11
1275.132755888836
 21
658.3834225752532
 31
0.0
  0
LINE
  5
1E2E
330
1F
100
AcDbEntity
  8
direction
100
AcDbLine
 10
1275.132755888836
 20
658.3834225752532
 30
0.0
 11
1252.196498648744
 21
642.3232823574239
 31
0.0
  0
LINE
  5
1E2F
330
1F
100
AcDbEntity
  8
direction
100
AcDbLine
 10
1252.196498648744
 20
642.3232823574239
 30
0.0
 11
1111.757110054243
 21
842.8915152467405
 31
0.0
  0
LINE
  5
1E30
330
1F
100
AcDbEntity
  8
direction
100
AcDbLine
 10
1131.828885219555
 20
838.6343046913204
 30
0.0
 11
1263.464110769921
 21
650.6397197045169
 31
0.0
  0
LINE
  5
1E37
330
1F
100
AcDbEntity
  8
direction
100
AcDbLine
 10
1485.4639068879
 20
439.4660749298038
 30
0.0
 11
1256.940589261355
 21
645.6451303663243
 31
0.0
  0
LINE
  5
1E38
330
1F
100
AcDbEntity
  8
direction
100
AcDbLine
 10
1285.39168605978
 20
610.6319463206501
 30
0.0
 11
1307.906487901089
 21
626.3969802912327
 31
0.0
  0
LINE
  5
1E39
330
1F
100
AcDbEntity
  8
direction
100
AcDbLine
 10
1270.388665276224
 20
655.0615745663528
 30
0.0
 11
1496.181926530165
 21
451.3456395240149
 31
0.0
  0
LINE
  5
1E42
330
1F
100
AcDbEntity
  8
direction
100
AcDbLine
 10
1245.233706272288
 20
637.44788264844
 30
0.0
 11
1285.39168605978
 21
610.6319463206501
 31
0.0
  0
LINE
  5
1E48
330
1F
100
AcDbEntity
  8
direction
100
AcDbLine
 10
1307.906487901089
 20
626.3969802912327
 30
0.0
 11
1282.095548265292
 21
663.2588222842372
 31
0.0
  0
LINE
  5
1E49
330
1F
100
AcDbEntity
  8
direction
100
AcDbLine
 10
1282.095548265292
 20
663.2588222842372
 30
0.0
 11
1245.233706272288
 21
637.44788264844
 31
0.0
  0
LINE
  5
1E4E
330
1F
100
AcDbEntity
  8
direction
100
AcDbLine
 10
1392.54370088377
 20
768.75
 30
0.0
 11
1282.341973899974
 21
658.5482730162034
 31
0.0
  0
LINE
  5
1E4F
330
1F
100
AcDbEntity
  8
direction
100
AcDbLine
 10
1279.761002084253
 20
661.6241554499751
 30
0.0
 11
1386.886846634278
 21
768.75
 31
0.0
  0
LINE
  5
1E50
330
1F
100
AcDbEntity
  8
direction
100
AcDbLine
 10
1386.886846634278
 20
768.75
 30
0.0
 11
1398.200555133263
 21
768.75
 31
0.0
  0
LINE
  5
1E51
330
1F
100
AcDbEntity
  8
direction
100
AcDbLine
 10
1398.200555133263
 20
768.75
 30
0.0
 11
1284.671673009659
 21
655.2211178763968
 31
0.0
  0
LINE
  5
1E52
330
1F
100
AcDbEntity
  8
direction
100
AcDbLine
 10
1284.671673009659
 20
655.2211178763968
 30
0.0
 11
1279.761002084253
 21
661.6241554499751
 31
0.0
  0
CIRCLE
  5
1E5C
330
1F
100
AcDbEntity
  8
cadre
100
AcDbCircle
 10
822.9156098834325
 20
515.4700166457022
 30
0.0
 40
8.0
  0
DIMENSION
  5
1E6E
330
1F
100
AcDbEntity
  8
cotes
100
AcDbDimension
  2
*D3
 10
1812.200506471613
 20
100.0
 30
0.0
 11
1806.575506471613
 21
415.0000000000001
 31
0.0
 70
    32
 71
     5
 42
629.9999999999998
  3
ISO-25
100
AcDbAlignedDimension
 13
1670.778993828548
 23
729.9999999999998
 33
0.0
 14
1707.750882882609
 24
100.0
 34
0.0
 50
90.0
100
AcDbRotatedDimension
1001
ACAD
1000
DSTYLE
1002
{
1070
   140
1040
10.0
1002
}
  0
XLINE
  5
1EC3
330
1F
100
AcDbEntity
  8
0
100
AcDbXline
 10
320.0
 20
416.2435537077213
 30
0.0
 11
0.0
 21
1.0
 31
0.0
  0
LINE
  5
1ECC
330
1F
100
AcDbEntity
  8
cadre
100
AcDbLine
 10
320.0
 20
416.977846073908
 30
0.0
 11
822.9156098834325
 21
515.4700166457022
 31
0.0
  0
LINE
  5
1EEE
330
1F
100
AcDbEntity
  8
Transmission
100
AcDbLine
 10
1577.011814405502
 20
764.7522094699962
 30
0.0
 11
1448.295093826885
 21
451.0009564034111
 31
0.0
  0
XLINE
  5
1F02
330
1F
100
AcDbEntity
  8
cotes
100
AcDbXline
 10
2700.0
 20
100.0
 30
0.0
 11
0.0
 21
1.0
 31
0.0
  0
XLINE
  5
1F03
330
1F
100
AcDbEntity
  8
0
100
AcDbXline
 10
300.0
 20
100.0
 30
0.0
 11
0.0
 21
1.0
 31
0.0
  0
DIMENSION
  5
1F35
330
1F
100
AcDbEntity
  8
cotes
100
AcDbDimension
  2
*D4
 10
1081.04038778364
 20
100.0
 30
0.0
 11
1075.41538778364
 21
315.0000000000001
 31
0.0
 70
    32
 71
     5
 42
429.9999999999998
  3
ISO-25
100
AcDbAlignedDimension
 13
1004.415985835376
 23
529.9999999999998
 33
0.0
 14
1004.415985835376
 24
100.0
 34
0.0
 50
90.0
100
AcDbRotatedDimension
1001
ACAD
1000
DSTYLE
1002
{
1070
   140
1040
10.0
1002
}
  0
DIMENSION
  5
1F46
330
1F
100
AcDbEntity
  8
cotes
100
AcDbDimension
  2
*D5
 10
1338.715039245255
 20
643.4247133818453
 30
0.0
 11
1311.458598022774
 21
632.2237169921792
 31
0.0
 70
    33
 71
     5
 42
57.5035942804061
  3
ISO-25
100
AcDbAlignedDimension
 13
1271.907351431563
 23
638.5815223831492
 33
0.0
 14
1319.011538240322
 24
671.5642290678808
 34
0.0
1001
ACAD
1000
DSTYLE
1002
{
1070
   140
1040
10.0
1002
}
  0
XLINE
  5
2027
330
1F
100
AcDbEntity
  8
0
100
AcDbXline
 10
340.0
 20
100.0
 30
0.0
 11
0.0
 21
1.0
 31
0.0
  0
XLINE
  5
2043
330
1F
100
AcDbEntity
  8
0
100
AcDbXline
 10
0.0
 20
730.0
 30
0.0
 11
1.0
 21
0.0
 31
0.0
  0
DIMENSION
  5
2061
330
1F
100
AcDbEntity
  8
cotes
100
AcDbDimension
  2
*D6
 10
1004.415985835253
 20
529.9999999999989
 30
0.0
 11
989.088516086136
 21
719.6245804737158
 31
0.0
 70
    34
 71
     5
 42
2.352850873787718
  3
ISO-25
100
AcDb2LineAngularDimension
 13
922.208815151883
 23
544.2660866585785
 33
0.0
 14
798.9291094857572
 24
611.1601263405401
 34
0.0
 15
1670.778993828547
 25
730.0
 35
0.0
 16
1061.445545625977
 26
691.5591805313887
 36
0.0
1001
ACAD
1000
DSTYLE
1002
{
1070
   140
1040
10.0
1002
}
  0
DIMENSION
  5
2075
330
1F
100
AcDbEntity
  8
cotes
100
AcDbDimension
  2
*D7
 10
1144.5101492781
 20
475.0
 30
0.0
 11
1107.130520732983
 21
528.3798082936332
 31
0.0
 70
    34
 71
     5
 42
1.919929663759957
  3
ISO-25
100
AcDb2LineAngularDimension
 13
1227.257893013785
 23
702.3475574246129
 33
0.0
 14
1144.5101492781
 24
475.0
 34
0.0
 15
932.5935407805699
 25
474.9856984757512
 35
0.0
 16
1127.432242226224
 26
532.0395120089155
 36
0.0
1001
ACAD
1000
DSTYLE
1002
{
1070
   140
1040
10.0
1002
}
  0
DIMENSION
  5
2082
330
1F
100
AcDbEntity
  8
cotes
100
AcDbDimension
  2
*D8
 10
1144.5101492781
 20
475.0
 30
0.0
 11
944.5509558593586
 21
528.9307265990061
 31
0.0
 70
    34
 71
     5
 42
2.705192854025014
  3
ISO-25
100
AcDb2LineAngularDimension
 13
618.8604751438913
 23
621.2818295985795
 33
0.0
 14
932.5935407805699
 24
474.9856984757512
 34
0.0
 15
932.5935407805699
 25
474.9856984757512
 35
0.0
 16
963.3736883448644
 26
513.9171416699217
 36
0.0
1001
ACAD
1000
DSTYLE
1002
{
1070
   140
1040
10.0
1002
}
  0
XLINE
  5
208F
330
1F
100
AcDbEntity
  8
0
100
AcDbXline
 10
932.5935407805699
 20
474.9856984757512
 30
0.0
 11
0.0
 21
1.0
 31
0.0
  0
XLINE
  5
2091
330
1F
100
AcDbEntity
  8
0
100
AcDbXline
 10
1144.5101492781
 20
475.0
 30
0.0
 11
1.0
 21
0.0
 31
0.0
  0
DIMENSION
  5
2092
330
1F
100
AcDbEntity
  8
cotes
100
AcDbDimension
  2
*D9
 10
1144.5101492781
 20
364.0175719263925
 30
0.0
 11
1038.551845029335
 21
370.4759052597258
 31
0.0
 70
    32
 71
     5
 42
211.9166084975304
  3
ISO-25
100
AcDbAlignedDimension
 13
932.5935407805699
 23
474.9856984757512
 33
0.0
 14
1144.5101492781
 24
474.9999999999998
 34
0.0
100
AcDbRotatedDimension
1001
ACAD
1000
DSTYLE
1002
{
1070
   140
1040
10.0
1002
}
  0
XLINE
  5
209F
330
1F
100
AcDbEntity
  8
0
100
AcDbXline
 10
1227.257893013785
 20
702.3475574246129
 30
0.0
 11
0.0
 21
1.0
 31
0.0
  0
XLINE
  5
20A0
330
1F
100
AcDbEntity
  8
0
100
AcDbXline
 10
1386.448366516064
 20
475.0
 30
0.0
 11
0.0
 21
1.0
 31
0.0
  0
DIMENSION
  5
20A1
330
1F
100
AcDbEntity
  8
cotes
100
AcDbDimension
  2
*D10
 10
1227.257893013785
 20
362.7675719263925
 30
0.0
 11
1185.884021145943
 21
369.2259052597258
 31
0.0
 70
    32
 71
     5
 42
82.74774373568517
  3
ISO-25
100
AcDbAlignedDimension
 13
1144.5101492781
 23
474.3749999999998
 33
0.0
 14
1227.257893013785
 24
475.0
 34
0.0
100
AcDbRotatedDimension
1001
ACAD
1000
DSTYLE
1002
{
1070
   140
1040
10.0
1002
}
  0
DIMENSION
  5
20AE
330
1F
100
AcDbEntity
  8
cotes
100
AcDbDimension
  2
*D11
 10
1386.448366516064
 20
363.1842385930592
 30
0.0
 11
1306.853129764925
 21
369.6425719263925
 31
0.0
 70
    32
 71
     5
 42
159.190473502279
  3
ISO-25
100
AcDbAlignedDimension
 13
1227.257893013785
 23
475.0
 33
0.0
 14
1386.448366516064
 24
474.9999999999999
 34
0.0
100
AcDbRotatedDimension
1001
ACAD
1000
DSTYLE
1002
{
1070
   140
1040
10.0
1002
}
  0
XLINE
  5
20BB
330
1F
100
AcDbEntity
  8
0
100
AcDbXline
 10
657.7521283576452
 20
603.1463538666976
 30
0.0
 11
0.0
 21
1.0
 31
0.0
  0
DIMENSION
  5
20BC
330
1F
100
AcDbEntity
  8
cotes
100
AcDbDimension
  2
*D12
 10
932.5935407805699
 20
364.0175719263925
 30
0.0
 11
795.1728345691076
 21
370.4759052597258
 31
0.0
 70
    32
 71
     5
 42
274.8414124229248
  3
ISO-25
100
AcDbAlignedDimension
 13
657.7521283576452
 23
475.0
 33
0.0
 14
932.5935407805699
 24
475.1383421565486
 34
0.0
100
AcDbRotatedDimension
1001
ACAD
1000
DSTYLE
1002
{
1070
   140
1040
10.0
1002
}
  0
DIMENSION
  5
20C9
330
1F
100
AcDbEntity
  8
cotes
100
AcDbDimension
  2
*D13
 10
705.6485981392243
 20
475.0
 30
0.0
 11
699.1902648058908
 21
539.0731769333489
 31
0.0
 70
    32
 71
     5
 42
128.1463538666975
  3
ISO-25
100
AcDbAlignedDimension
 13
657.7521283576452
 23
603.1463538666976
 33
0.0
 14
657.7521283576452
 24
475.0
 34
0.0
 50
90.0
100
AcDbRotatedDimension
1001
ACAD
1000
DSTYLE
1002
{
1070
   140
1040
10.0
1002
}
  0
XLINE
  5
2136
330
1F
100
AcDbEntity
  8
0
100
AcDbXline
 10
830.0161277682969
 20
511.7845525274775
 30
0.0
 11
0.0
 21
1.0
 31
0.0
  0
DIMENSION
  5
2137
330
1F
100
AcDbEntity
  8
cotes
100
AcDbDimension
  2
*D14
 10
300.0
 20
363.6009052597258
 30
0.0
 11
479.1885641788225
 21
365.6842385930591
 31
0.0
 70
    32
 71
     5
 42
358.3771283576452
  3
ISO-25
100
AcDbAlignedDimension
 13
658.3771283576452
 23
475.0
 33
0.0
 14
300.0
 24
475.0
 34
0.0
100
AcDbRotatedDimension
  0
DIMENSION
  5
2144
330
1F
100
AcDbEntity
  8
cotes
100
AcDbDimension
  2
*D15
 10
657.7521283576452
 20
700.3284981330925
 30
0.0
 11
681.7104616909785
 21
706.7868314664259
 31
0.0
 70
    32
 71
     5
 42
38.8916532137539
  3
ISO-25
100
AcDbAlignedDimension
 13
618.8604751438913
 23
621.2818295985795
 33
0.0
 14
657.7521283576452
 24
603.1463538666976
 34
0.0
100
AcDbRotatedDimension
1001
ACAD
1000
DSTYLE
1002
{
1070
   140
1040
10.0
1002
}
  0
DIMENSION
  5
2181
330
1F
100
AcDbEntity
  8
cotes
100
AcDbDimension
  2
*D16
 10
1086.394817494326
 20
496.3120154832959
 30
0.0
 11
1122.017716369309
 21
612.2093869436777
 31
0.0
 70
    33
 71
     5
 42
242.1526920456469
  3
ISO-25
100
AcDbAlignedDimension
 13
1227.882893013785
 23
702.3475574246129
 33
0.0
 14
1144.5101492781
 24
475.0
 34
0.0
1001
ACAD
1000
DSTYLE
1002
{
1070
   140
1040
10.0
1002
}
  0
DIMENSION
  5
218E
330
1F
100
AcDbEntity
  8
cotes
100
AcDbDimension
  2
*D17
 10
1143.923361569114
 20
428.5591554016223
 30
0.0
 11
1074.482173702245
 21
435.0174887349556
 31
0.0
 70
    32
 71
     5
 42
138.8823757337374
  3
ISO-25
100
AcDbAlignedDimension
 13
1005.040985835376
 23
474.9905877050549
 33
0.0
 14
1143.923361569114
 24
475.2151863949749
 34
0.0
100
AcDbRotatedDimension
1001
ACAD
1000
DSTYLE
1002
{
1070
   140
1040
10.0
1002
}
  0
DIMENSION
  5
219B
330
1F
100
AcDbEntity
  8
cotes
100
AcDbDimension
  2
*D18
 10
902.4323410677251
 20
410.3803116340649
 30
0.0
 11
767.7383734085286
 21
480.2388000719157
 31
0.0
 70
    33
 71
     5
 42
303.1894672389097
  3
ISO-25
100
AcDbAlignedDimension
 13
657.7521283576452
 23
603.1463538666976
 33
0.0
 14
932.5935407805699
 24
475.1383421565486
 34
0.0
1001
ACAD
1000
DSTYLE
1002
{
1070
   140
1040
10.0
1002
}
  0
DIMENSION
  5
21B1
330
1F
100
AcDbEntity
  8
cotes
100
AcDbDimension
  2
*D19
 10
1143.923361569114
 20
414.6727348668045
 30
0.0
 11
1038.258451174842
 21
421.1310682001379
 31
0.0
 70
    32
 71
     5
 42
211.3298207885438
  3
ISO-25
100
AcDbAlignedDimension
 13
932.5935407805699
 23
475.1383421565486
 33
0.0
 14
1143.923361569114
 24
475.2151863949749
 34
0.0
100
AcDbRotatedDimension
1001
ACAD
1000
DSTYLE
1002
{
1070
   140
1040
10.0
1002
}
  0
DIMENSION
  5
21DD
330
1F
100
AcDbEntity
  8
cotes
100
AcDbDimension
  2
*D20
 10
1005.040985835376
 20
428.5591554016223
 30
0.0
 11
968.8172633079732
 21
435.0174887349556
 31
0.0
 70
    32
 71
     5
 42
72.44744505480639
  3
ISO-25
100
AcDbAlignedDimension
 13
932.5935407805699
 23
475.1383421565486
 33
0.0
 14
1005.040985835376
 24
475.1383421565486
 34
0.0
100
AcDbRotatedDimension
1001
ACAD
1000
DSTYLE
1002
{
1070
   140
1040
10.0
1002
}
  0
DIMENSION
  5
21FC
330
1F
100
AcDbEntity
  8
cotes
100
AcDbDimension
  2
*D21
 10
651.9993457438393
 20
692.3553148946633
 30
0.0
 11
811.5950689993091
 21
625.0677400822802
 31
0.0
 70
    33
 71
     5
 42
346.1600932292693
  3
ISO-25
100
AcDbAlignedDimension
 13
932.5935407805699
 23
475.0
 33
0.0
 14
618.8604751438913
 24
621.2818295985795
 34
0.0
1001
ACAD
1000
DSTYLE
1002
{
1070
   140
1040
10.0
1002
}
  0
DIMENSION
  5
2212
330
1F
100
AcDbEntity
  8
cotes
100
AcDbDimension
  2
*D22
 10
1242.774550085933
 20
647.9337088367342
 30
0.0
 11
1227.115189233957
 21
623.5373209169694
 31
0.0
 70
    34
 71
     5
 42
0.959931088596882
  3
ISO-25
100
AcDb2LineAngularDimension
 13
1227.257893013785
 23
702.3475574246129
 33
0.0
 14
1144.5101492781
 24
475.0
 34
0.0
 15
1188.37162694409
 25
725.6291350827019
 35
0.0
 16
1217.789682413102
 26
621.1907631278786
 36
0.0
  0
DIMENSION
  5
2221
330
1F
100
AcDbEntity
  8
cotes
100
AcDbDimension
  2
*D23
 10
1193.671979043091
 20
601.3439725594444
 30
0.0
 11
1192.340006944378
 21
606.5151885990478
 31
0.0
 70
    33
 71
     5
 42
10.00000000000011
  3
ISO-25
100
AcDbAlignedDimension
 13
1242.774550085933
 23
647.9337088367342
 33
0.0
 14
1248.510314449443
 24
639.7421883938441
 34
0.0
  0
XLINE
  5
2232
330
1F
100
AcDbEntity
  8
0
100
AcDbXline
 10
1243.133035358652
 20
647.4217388090535
 30
0.0
 11
0.3420201433256689
 21
0.9396926207859085
 31
0.0
  0
DIMENSION
  5
224A
330
1F
100
AcDbEntity
  8
0
100
AcDbDimension
  2
*D24
 10
988.6499255126743
 20
436.3370862989998
 30
0.0
 11
993.118012207806
 21
466.1167944401329
 31
0.0
 70
    33
 71
     5
 42
60.08176222144289
  3
ISO-25
100
AcDbAlignedDimension
 13
979.0764182014983
 23
500.0
 33
0.0
 14
966.0723447815687
 24
441.342415442476
 34
0.0
  0
XLINE
  5
2257
330
1F
100
AcDbEntity
  8
0
100
AcDbXline
 10
1127.004960822857
 20
499.9999999999999
 30
0.0
 11
0.5735764363510478
 21
-0.8191520442889908
 31
0.0
  0
XLINE
  5
2258
330
1F
100
AcDbEntity
  8
0
100
AcDbXline
 10
1094.238879051298
 20
477.0569425459579
 30
0.0
 11
0.5735764363510478
 21
-0.8191520442889908
 31
0.0
  0
XLINE
  5
2259
330
1F
100
AcDbEntity
  8
0
100
AcDbXline
 10
1159.771042594417
 20
522.9430574540417
 30
0.0
 11
0.5735764363510478
 21
-0.8191520442889908
 31
0.0
  0
DIMENSION
  5
225B
330
1F
100
AcDbEntity
  8
0
100
AcDbDimension
  2
*D25
 10
1154.936838763876
 20
553.7499342708801
 30
0.0
 11
1182.181044867504
 21
518.4733564529238
 31
0.0
 70
    33
 71
     5
 42
89.04703096646091
  3
ISO-25
100
AcDbAlignedDimension
 13
1194.781419504902
 23
472.9430574540418
 33
0.0
 14
1143.706140815518
 24
545.8861149080834
 34
0.0
  0
DIMENSION
  5
2268
330
1F
100
AcDbEntity
  8
cotes
100
AcDbDimension
  2
*D26
 10
1095.681473107322
 20
450.0
 30
0.0
 11
1120.095811192711
 21
452.0833333333333
 31
0.0
 70
    32
 71
     5
 42
48.82867617077796
  3
ISO-25
100
AcDbAlignedDimension
 13
1144.5101492781
 23
475.0
 33
0.0
 14
1095.681473107322
 24
474.9967047203083
 34
0.0
100
AcDbRotatedDimension
  0
DIMENSION
  5
2275
330
1F
100
AcDbEntity
  8
cotes
100
AcDbDimension
  2
*D27
 10
979.0764182014983
 20
502.7523666883782
 30
0.0
 11
958.5908279152082
 21
504.8357000217115
 31
0.0
 70
    32
 71
     5
 42
40.97118057258035
  3
ISO-25
100
AcDbAlignedDimension
 13
938.1052376289181
 23
500.0
 33
0.0
 14
979.0764182014983
 24
500.0
 34
0.0
100
AcDbRotatedDimension
  0
DIMENSION
  5
2297
330
1F
100
AcDbEntity
  8
cotes
100
AcDbDimension
  2
*D28
 10
1386.448366516064
 20
429.8690856308112
 30
0.0
 11
1265.479257897082
 21
431.9524189641446
 31
0.0
 70
    32
 71
     5
 42
241.9382172379641
  3
ISO-25
100
AcDbAlignedDimension
 13
1144.5101492781
 23
474.3749999999998
 33
0.0
 14
1386.448366516064
 24
474.3749999999999
 34
0.0
100
AcDbRotatedDimension
  0
DIMENSION
  5
22A4
330
1F
100
AcDbEntity
  8
cotes
100
AcDbDimension
  2
*D29
 10
1048.180117554272
 20
542.8356709709459
 30
0.0
 11
1079.870743507673
 21
567.3146385080295
 31
0.0
 70
    33
 71
     5
 42
79.99999999999977
  3
ISO-25
100
AcDbAlignedDimension
 13
1143.706140815518
 23
545.8861149080834
 33
0.0
 14
1078.173977272399
 24
500.0
 34
0.0
  0
DIMENSION
  5
22B1
330
1F
100
AcDbEntity
  8
cotes
100
AcDbDimension
  2
*D30
 10
1078.173977272399
 20
486.3099514606042
 30
0.0
 11
1102.589469047628
 21
488.3932847939375
 31
0.0
 70
    32
 71
     5
 42
48.83098355045831
  3
ISO-25
100
AcDbAlignedDimension
 13
1127.004960822857
 23
499.9999999999999
 33
0.0
 14
1078.173977272399
 24
500.0
 34
0.0
100
AcDbRotatedDimension
  0
DIMENSION
  5
22BF
330
1F
100
AcDbEntity
  8
cotes
100
AcDbDimension
  2
*D31
 10
631.4686726026974
 20
587.8180825939454
 30
0.0
 11
642.1132735099111
 21
616.0497138440936
 31
0.0
 70
    34
 71
     5
 42
0.7741408570823137
  3
ISO-25
100
AcDb2LineAngularDimension
 13
938.1052376289181
 23
500.0
 33
0.0
 14
606.2522776850853
 24
654.7455766032132
 34
0.0
 15
606.2522776850853
 25
654.7455766032132
 35
0.0
 16
637.9233155357641
 26
610.2294740378166
 36
0.0
  0
DIMENSION
  5
22D0
330
1F
100
AcDbEntity
  8
cotes
100
AcDbDimension
  2
*D32
 10
762.6405988235042
 20
100.0
 30
0.0
 11
760.5572654901708
 21
256.8750000000001
 31
0.0
 70
    32
 71
     5
 42
313.7499999999999
  3
ISO-25
100
AcDbAlignedDimension
 13
830.0161277682969
 23
413.75
 33
0.0
 14
830.0161277682969
 24
100.0
 34
0.0
 50
90.0
100
AcDbRotatedDimension
  0
DIMENSION
  5
22EB
330
1F
100
AcDbEntity
  8
cotes
100
AcDbDimension
  2
*D33
 10
657.7521283576452
 20
254.7652170248552
 30
0.0
 11
1022.100247436855
 21
256.8485503581885
 31
0.0
 70
    32
 71
     5
 42
728.6962381584194
  3
ISO-25
100
AcDbAlignedDimension
 13
1386.448366516064
 23
474.9999999999999
 33
0.0
 14
657.7521283576452
 24
413.75
 34
0.0
100
AcDbRotatedDimension
  0
DIMENSION
  5
22F8
330
1F
100
AcDbEntity
  8
cotes
100
AcDbDimension
  2
*D34
 10
300.0
 20
199.7226801275301
 30
0.0
 11
843.2241832580324
 21
201.8060134608634
 31
0.0
 70
    32
 71
     5
 42
1086.448366516064
  3
ISO-25
100
AcDbAlignedDimension
 13
1386.448366516064
 23
474.9999999999999
 33
0.0
 14
300.0
 24
475.0
 34
0.0
100
AcDbRotatedDimension
  0
DIMENSION
  5
2317
330
1F
100
AcDbEntity
  8
cotes
100
AcDbDimension
  2
*D35
 10
265.7016775834708
 20
416.2435537077213
 30
0.0
 11
263.6183442501374
 21
445.6217768538606
 31
0.0
 70
    32
 71
     5
 42
58.75644629227872
  3
ISO-25
100
AcDbAlignedDimension
 13
300.0
 23
475.0
 33
0.0
 14
300.0
 24
416.2435537077213
 34
0.0
 50
90.0
100
AcDbRotatedDimension
  0
DIMENSION
  5
233A
330
1F
100
AcDbEntity
  8
cotes
100
AcDbDimension
  2
*D36
 10
275.0
 20
384.3209887780131
 30
0.0
 11
307.5
 21
386.195988778013
 31
0.0
 70
    32
 71
     5
 42
65.0
  3
ISO-25
100
AcDbAlignedDimension
 13
340.0
 23
406.2435537077212
 33
0.0
 14
275.0
 24
406.2435537077212
 34
0.0
100
AcDbRotatedDimension
  0
DIMENSION
  5
2358
330
1F
100
AcDbEntity
  8
cotes
100
AcDbDimension
  2
*D37
 10
857.324300551445
 20
557.889941646927
 30
0.0
 11
767.4859310885437
 21
601.8510949216906
 31
0.0
 70
    33
 71
     5
 42
199.9999999999999
  3
ISO-25
100
AcDbAlignedDimension
 13
657.7521283576452
 23
603.1463538666976
 33
0.0
 14
839.0136857649752
 24
518.6227015185576
 34
0.0
  0
XLINE
  5
2370
330
1F
100
AcDbEntity
  8
0
100
AcDbXline
 10
657.7521283576452
 20
603.1463538666976
 30
0.0
 11
0.4226182617406995
 21
0.9063077870366498
 31
0.0
  0
DIMENSION
  5
238C
330
1F
100
AcDbEntity
  8
cotes
100
AcDbDimension
  2
*D38
 10
810.9096249554244
 20
539.532593103831
 30
0.0
 11
736.7111974815583
 21
576.4305920557916
 31
0.0
 70
    33
 71
     5
 42
165.6807615684537
  3
ISO-25
100
AcDbAlignedDimension
 13
647.1970102823426
 23
580.483838283879
 33
0.0
 14
797.3547746539948
 24
510.4641228259438
 34
0.0
  0
XLINE
  5
239A
330
1F
100
AcDbEntity
  8
0
100
AcDbXline
 10
839.013685764975
 20
518.6227015185576
 30
0.0
 11
-0.9813574715225442
 21
-0.1921913449843124
 31
0.0
  0
XLINE
  5
239D
330
1F
100
AcDbEntity
  8
0
100
AcDbXline
 10
830.0161277682969
 20
511.7845525274775
 30
0.0
 11
-0.9063077870366498
 21
0.4226182617406995
 31
0.0
  0
DIMENSION
  5
23BD
330
1F
100
AcDbEntity
  8
0
100
AcDbDimension
  2
*D39
 10
631.2443095697845
 20
648.2658303328015
 30
0.0
 11
651.8716042342171
 21
641.0915475871964
 31
0.0
 70
    33
 71
     5
 42
43.47943607313419
  3
ISO-25
100
AcDbAlignedDimension
 13
658.3771283576452
 23
603.1463538666976
 33
0.0
 14
618.8604751438913
 24
621.2818295985795
 34
0.0
  0
DIMENSION
  5
23CA
330
1F
100
AcDbEntity
  8
0
100
AcDbDimension
  2
*D40
 10
672.9342658931194
 20
586.8519008932638
 30
0.0
 11
657.6149403592758
 21
581.6444435582382
 31
0.0
 70
    33
 71
     5
 42
32.09106224045626
  3
ISO-25
100
AcDbAlignedDimension
 13
638.2582679212832
 23
584.6520423011154
 33
0.0
 14
667.0591298305422
 24
598.8064278054259
 34
0.0
  0
DIMENSION
  5
23DD
330
1F
100
AcDbEntity
  8
cotes
100
AcDbDimension
  2
*D41
 10
813.8736255640724
 20
545.8889129214708
 30
0.0
 11
824.0821166462712
 21
543.4273193494732
 31
0.0
 70
    33
 71
     5
 42
20.58469871640119
  3
ISO-25
100
AcDbAlignedDimension
 13
822.350121320583
 23
515.3592700415121
 33
0.0
 14
803.6940485801054
 24
524.0587396314936
 34
0.0
  0
DIMENSION
  5
23EA
330
1F
100
AcDbEntity
  8
cotes
100
AcDbDimension
  2
*D42
 10
927.0205044967713
 20
450.0
 30
0.0
 11
723.7061291271503
 21
523.6828599712727
 31
0.0
 70
    34
 71
     5
 42
0.6299157072281697
  3
ISO-25
100
AcDb2LineAngularDimension
 13
821.3780791235583
 23
523.3208764178827
 33
0.0
 14
320.0
 24
425.0315455327577
 34
0.0
 15
631.4686726026974
 25
587.8180825939454
 35
0.0
 16
726.6552307544158
 26
529.6497051107023
 36
0.0
  0
DIMENSION
  5
23FB
330
1F
100
AcDbEntity
  8
cotes
100
AcDbDimension
  2
*D43
 10
374.8642210685725
 20
406.2435537077212
 30
0.0
 11
372.9892210685724
 21
431.2435537077213
 31
0.0
 70
    32
 71
     5
 42
50.0
  3
ISO-25
100
AcDbAlignedDimension
 13
340.0
 23
456.2435537077212
 33
0.0
 14
340.0
 24
406.2435537077212
 34
0.0
 50
90.0
100
AcDbRotatedDimension
  0
DIMENSION
  5
2411
330
1F
100
AcDbEntity
  8
cotes
100
AcDbDimension
  2
*D44
 10
275.0
 20
387.9221475984604
 30
0.0
 11
287.5
 21
389.7971475984604
 31
0.0
 70
    32
 71
     5
 42
25.0
  3
ISO-25
100
AcDbAlignedDimension
 13
300.0
 23
416.2435537077213
 33
0.0
 14
275.0
 24
406.2435537077212
 34
0.0
100
AcDbRotatedDimension
  0
DIMENSION
  5
241E
330
1F
100
AcDbEntity
  8
cotes
100
AcDbDimension
  2
*D45
 10
314.9528457365131
 20
406.2435537077212
 30
0.0
 11
313.077845736513
 21
411.2435537077213
 31
0.0
 70
    32
 71
     5
 42
10.0
  3
ISO-25
100
AcDbAlignedDimension
 13
300.0
 23
416.2435537077213
 33
0.0
 14
305.0
 24
406.2435537077212
 34
0.0
 50
90.0
100
AcDbRotatedDimension
  0
DIMENSION
  5
242B
330
1F
100
AcDbEntity
  8
cotes
100
AcDbDimension
  2
*D46
 10
275.0
 20
452.2263293856594
 30
0.0
 11
277.4999999999999
 21
454.1013293856594
 31
0.0
 70
    32
 71
     5
 42
5.0
  3
ISO-25
100
AcDbAlignedDimension
 13
280.0
 23
431.8253540339942
 33
0.0
 14
275.0
 24
431.8253540339942
 34
0.0
100
AcDbRotatedDimension
  0
DIMENSION
  5
243A
330
1F
100
AcDbEntity
  8
cotes
100
AcDbDimension
  2
*D47
 10
295.0339645208326
 20
416.8253540339943
 30
0.0
 11
293.1589645208325
 21
424.3253540339943
 31
0.0
 70
    32
 71
     5
 42
15.0
  3
ISO-25
100
AcDbAlignedDimension
 13
280.0
 23
431.8253540339942
 33
0.0
 14
280.0
 24
416.8253540339943
 34
0.0
 50
90.0
100
AcDbRotatedDimension
  0
DIMENSION
  5
2447
330
1F
100
AcDbEntity
  8
cotes
100
AcDbDimension
  2
*D48
 10
275.0
 20
466.2856657063998
 30
0.0
 11
292.5
 21
468.1606657063999
 31
0.0
 70
    32
 71
     5
 42
35.0
  3
ISO-25
100
AcDbAlignedDimension
 13
310.0
 23
446.2435537077213
 33
0.0
 14
275.0
 24
440.5172869901868
 34
0.0
100
AcDbRotatedDimension
  0
DIMENSION
  5
2454
330
1F
100
AcDbEntity
  8
cotes
100
AcDbDimension
  2
*D49
 10
317.0288106778984
 20
456.2435537077212
 30
0.0
 11
315.1538106778983
 21
451.2435537077213
 31
0.0
 70
    32
 71
     5
 42
10.0
  3
ISO-25
100
AcDbAlignedDimension
 13
310.0
 23
446.2435537077213
 33
0.0
 14
307.721699810118
 24
456.2435537077212
 34
0.0
 50
90.0
100
AcDbRotatedDimension
  0
DIMENSION
  5
24AC
330
1F
100
AcDbEntity
  8
cotes
100
AcDbDimension
  2
*D50
 10
1239.497941908777
 20
645.6394030913299
 30
0.0
 11
1256.853407087121
 21
660.0807829922705
 31
0.0
 70
    33
 71
     5
 42
44.99999999999977
  3
ISO-25
100
AcDbAlignedDimension
 13
1282.095548265292
 23
663.2588222842372
 33
0.0
 14
1245.233706272288
 24
637.44788264844
 34
0.0
  0
DIMENSION
  5
24B9
330
1F
100
AcDbEntity
  8
cotes
100
AcDbDimension
  2
*D51
 10
1247.28158638301
 20
638.8818237393177
 30
0.0
 11
1277.803469359964
 21
649.097397369908
 31
0.0
 70
    34
 71
     5
 42
1.570796326794893
  3
ISO-25
100
AcDb2LineAngularDimension
 13
1312.212061039852
 23
615.8893676061733
 33
0.0
 14
1280.047668154569
 24
661.8248811933596
 34
0.0
 15
1280.047668154569
 25
661.8248811933596
 35
0.0
 16
1273.793414129026
 26
648.4125901529576
 36
0.0
  0
XLINE
  5
24DA
330
1F
100
AcDbEntity
  8
0
100
AcDbXline
 10
1307.906487901089
 20
626.3969802912328
 30
0.0
 11
-0.819152044288988
 21
-0.5735764363510515
 31
0.0
  0
DIMENSION
  5
24DB
330
1F
100
AcDbEntity
  8
cotes
100
AcDbDimension
  2
*D52
 10
1293.737346027286
 20
671.4104968355246
 30
0.0
 11
1300.13698142185
 21
665.9030511271342
 31
0.0
 70
    33
 71
     5
 42
16.36423094880387
  3
ISO-25
100
AcDbAlignedDimension
 13
1291.481685536552
 23
649.8540290493214
 33
0.0
 14
1282.095548265292
 24
663.2588222842372
 34
0.0
  0
DIMENSION
  5
24F1
330
1F
100
AcDbEntity
  8
cotes
100
AcDbDimension
  2
*D53
 10
1285.39168605978
 20
610.6319463206501
 30
0.0
 11
1261.964531556016
 21
637.6328104703552
 31
0.0
 70
    34
 71
     5
 42
1.19962513629912
  3
ISO-25
100
AcDb2LineAngularDimension
 13
1282.095548265292
 23
663.2588222842372
 33
0.0
 14
1245.233706272288
 24
637.44788264844
 34
0.0
 15
1245.233706272288
 25
637.44788264844
 35
0.0
 16
1259.826313070788
 26
634.6583060593871
 36
0.0
  0
DIMENSION
  5
24FE
330
1F
100
AcDbEntity
  8
cotes
100
AcDbDimension
  2
*D54
 10
1307.094769686972
 20
579.6367306983196
 30
0.0
 11
1317.157219698561
 21
589.2258144425461
 31
0.0
 70
    33
 71
     5
 42
27.48549795886947
  3
ISO-25
100
AcDbAlignedDimension
 13
1307.906487901089
 23
626.3969802912327
 33
0.0
 14
1285.39168605978
 24
610.6319463206501
 34
0.0
  0
DIMENSION
  5
2531
330
1F
100
AcDbEntity
  8
cotes
100
AcDbDimension
  2
*D55
 10
1692.785561759625
 20
662.745934932801
 30
0.0
 11
1358.41412275464
 21
563.8939312349309
 31
0.0
 70
    33
 71
     5
 42
697.3424914045322
  3
ISO-25
100
AcDbAlignedDimension
 13
1004.415985835253
 23
529.9999999999989
 33
0.0
 14
1671.953737530597
 24
731.6925888073328
 34
0.0
  0
XLINE
  5
253E
330
1F
100
AcDbEntity
  8
0
100
AcDbXline
 10
1512.290525843252
 20
426.0372806643349
 30
0.0
 11
0.0
 21
1.0
 31
0.0
  0
XLINE
  5
255A
330
1F
100
AcDbEntity
  8
0
100
AcDbXline
 10
1706.436403321674
 20
148.7682327263284
 30
0.0
 11
-0.5735764363510462
 21
0.8191520442889917
 31
0.0
  0
XLINE
  5
255B
330
1F
100
AcDbEntity
  8
0
100
AcDbXline
 10
1293.567076992313
 20
646.8757813984574
 30
0.0
 11
-0.819152044288988
 21
-0.5735764363510515
 31
0.0
  0
XLINE
  5
2580
330
1F
100
AcDbEntity
  8
0
100
AcDbXline
 10
1512.290525843252
 20
426.0372806643348
 30
0.0
 11
0.819152044288992
 21
0.5735764363510462
 31
0.0
  0
XLINE
  5
2581
330
1F
100
AcDbEntity
  8
0
100
AcDbXline
 10
1512.290525843252
 20
116.0372806643348
 30
0.0
 11
1.0
 21
0.0
 31
0.0
  0
CIRCLE
  5
2597
330
1F
100
AcDbEntity
  8
0
100
AcDbCircle
 10
1512.290525843253
 20
426.0372806643344
 30
0.0
 40
30.0
  0
XLINE
  5
2598
330
1F
100
AcDbEntity
  8
0
100
AcDbXline
 10
1512.290525843252
 20
426.0372806643348
 30
0.0
 11
0.4637665996714377
 21
0.8859574149072811
 31
0.0
  0
CIRCLE
  5
2599
330
1F
100
AcDbEntity
  8
0
100
AcDbCircle
 10
1005.040985835376
 20
529.9999999999989
 30
0.0
 40
690.0
  0
CIRCLE
  5
25A9
330
1F
100
AcDbEntity
  8
cotes
100
AcDbCircle
 10
1512.290525843252
 20
426.037280664335
 30
0.0
 40
350.0
  0
DIMENSION
  5
25AA
330
1F
100
AcDbEntity
  8
cotes
100
AcDbDimension
  2
*D56
 10
1244.674704500699
 20
637.483235796323
 30
0.0
 11
1340.076277135463
 21
504.8678508221325
 31
0.0
 70
    33
 71
     5
 42
326.7045155198263
  3
ISO-25
100
AcDbAlignedDimension
 13
1450.854122521578
 23
383.0190479380064
 33
0.0
 14
1263.464110769921
 24
650.6397197045169
 34
0.0
  0
XLINE
  5
25C2
330
1F
100
AcDbEntity
  8
0
100
AcDbXline
 10
1519.37818516251
 20
422.3271478669633
 30
0.0
 11
0.4637665996714377
 21
0.8859574149072811
 31
0.0
  0
DIMENSION
  5
25C4
330
1F
100
AcDbEntity
  8
cotes
100
AcDbDimension
  2
*D57
 10
1496.181926530165
 20
451.3456395240149
 30
0.0
 11
1502.347757877085
 21
481.5412256696951
 31
0.0
 70
    34
 71
     5
 42
1.318996191290992
  3
ISO-25
100
AcDb2LineAngularDimension
 13
1655.573410256645
 23
717.0080706499041
 33
0.0
 14
1518.612058434757
 24
455.3636889970053
 34
0.0
 15
1270.388665276224
 25
655.0615745663528
 35
0.0
 16
1511.752793228645
 26
480.3075995430686
 36
0.0
  0
DIMENSION
  5
25DF
330
1F
100
AcDbEntity
  8
cotes
100
AcDbDimension
  2
*D58
 10
1256.940589261355
 20
645.6451303663243
 30
0.0
 11
1275.666144345172
 21
644.4903926789718
 31
0.0
 70
    34
 71
     5
 42
1.34490731022255
  3
ISO-25
100
AcDb2LineAngularDimension
 13
1282.095548265292
 23
663.2588222842372
 33
0.0
 14
1245.233706272288
 24
637.44788264844
 34
0.0
 15
1485.4639068879
 25
439.4660749298038
 35
0.0
 16
1276.739990841096
 26
639.8284839732266
 36
0.0
  0
DIMENSION
  5
25EC
330
1F
100
AcDbEntity
  8
cotes
100
AcDbDimension
  2
*D59
 10
1496.181926530165
 20
451.3456395240149
 30
0.0
 11
1487.094700276949
 21
566.6890308966296
 31
0.0
 70
    34
 71
     5
 42
1.318996191290992
  3
ISO-25
100
AcDb2LineAngularDimension
 13
1655.573410256645
 23
717.0080706499041
 33
0.0
 14
1518.612058434757
 24
455.3636889970053
 34
0.0
 15
1270.388665276224
 25
655.0615745663528
 35
0.0
 16
1515.434687718094
 26
566.7324116868368
 36
0.0
  0
DIMENSION
  5
2610
330
1F
100
AcDbEntity
  8
cotes
100
AcDbDimension
  2
*D60
 10
1478.753118504939
 20
391.4411895453385
 30
0.0
 11
1337.686875987838
 21
531.0921766709006
 31
0.0
 70
    33
 71
     5
 42
396.9772925760855
  3
ISO-25
100
AcDbAlignedDimension
 13
1227.257893013785
 23
702.3475574246129
 33
0.0
 14
1512.290525843252
 24
426.037280664335
 34
0.0
  0
DIMENSION
  5
2626
330
1F
100
AcDbEntity
  8
cotes
100
AcDbDimension
  2
*D61
 10
1300.278561927004
 20
675.6011484542498
 30
0.0
 11
1284.132006567999
 21
703.115441624106
 31
0.0
 70
    33
 71
     5
 42
63.66811763576618
  3
ISO-25
100
AcDbAlignedDimension
 13
1227.210839677989
 23
702.9707836945905
 33
0.0
 14
1262.95214074224
 24
650.2812344317973
 34
0.0
  0
XLINE
  5
2646
330
1F
100
AcDbEntity
  8
0
100
AcDbXline
 10
1209.503029601165
 20
759.9578959363145
 30
0.0
 11
-0.819152044288992
 21
-0.573576436351046
 31
0.0
  0
XLINE
  5
2647
330
1F
100
AcDbEntity
  8
0
100
AcDbXline
 10
1172.794137674699
 20
812.3836267708101
 30
0.0
 11
-0.819152044288992
 21
-0.573576436351046
 31
0.0
  0
CIRCLE
  5
264B
330
1F
100
AcDbEntity
  8
Potence
100
AcDbCircle
 10
976.4081466896655
 20
889.4064309558499
 30
0.0
 40
13.0
  0
XLINE
  5
264D
330
1F
100
AcDbEntity
  8
0
100
AcDbXline
 10
986.4081466896655
 20
889.4064309558503
 30
0.0
 11
1.0
 21
0.0
 31
0.0
  0
DIMENSION
  5
2660
330
1F
100
AcDbEntity
  8
cotes
100
AcDbDimension
  2
*D62
 10
1185.729824550294
 20
821.4412922330222
 30
0.0
 11
1167.190559361049
 21
851.1870696012953
 31
0.0
 70
    33
 71
     5
 42
70.00000000000023
  3
ISO-25
100
AcDbAlignedDimension
 13
1117.489474310779
 23
859.1131057985453
 33
0.0
 14
1157.639824855352
 24
801.7724626983158
 34
0.0
  0
DIMENSION
  5
2676
330
1F
100
AcDbEntity
  8
cotes
100
AcDbDimension
  2
*D63
 10
1138.501334302704
 20
1002.90530281494
 30
0.0
 11
1190.606847793164
 21
932.1230984074761
 31
0.0
 70
    33
 71
     5
 42
175.7357643635103
  3
ISO-25
100
AcDbAlignedDimension
 13
1219.076228177026
 23
844.7906954246441
 33
0.0
 14
1118.278334713977
 24
988.7450060577023
 34
0.0
  0
CIRCLE
  5
2684
330
1F
100
AcDbEntity
  8
Potence
100
AcDbCircle
 10
976.4081466896653
 20
889.4064309558499
 30
0.0
 40
14.0
  0
XLINE
  5
268C
330
1F
100
AcDbEntity
  8
0
100
AcDbXline
 10
1152.718962402412
 20
841.0539483209248
 30
0.0
 11
-0.819152044288992
 21
-0.573576436351046
 31
0.0
  0
XLINE
  5
268D
330
1F
100
AcDbEntity
  8
0
100
AcDbXline
 10
1132.643787130126
 20
869.7242698710395
 30
0.0
 11
-0.819152044288992
 21
-0.573576436351046
 31
0.0
  0
LINE
  5
2695
330
1F
100
AcDbEntity
  8
Potence
100
AcDbLine
 10
982.6170817578686
 20
901.9604080615666
 30
0.0
 11
1108.535296613267
 21
844.0058480993243
 31
0.0
  0
LINE
  5
2696
330
1F
100
AcDbEntity
  8
Potence
100
AcDbLine
 10
1140.381137135617
 20
798.5252744343028
 30
0.0
 11
970.5547856811683
 21
876.6887989080119
 31
0.0
  0
LINE
  5
2697
330
1F
100
AcDbEntity
  8
Potence
100
AcDbLine
 10
1130.595907019403
 20
868.290328780162
 30
0.0
 11
1104.383041602155
 21
849.9358828169285
 31
0.0
  0
LINE
  5
2698
330
1F
100
AcDbEntity
  8
Potence
100
AcDbLine
 10
1104.383041602155
 20
849.9358828169285
 30
0.0
 11
1144.533392146728
 21
792.5952397166987
 31
0.0
  0
LINE
  5
2699
330
1F
100
AcDbEntity
  8
Potence
100
AcDbLine
 10
1144.533392146728
 20
792.5952397166987
 30
0.0
 11
1170.734856032169
 21
810.9659687548569
 31
0.0
  0
LINE
  5
269A
330
1F
100
AcDbEntity
  8
Potence
100
AcDbLine
 10
1170.734856032169
 20
810.9659687548569
 30
0.0
 11
1130.595907019403
 21
868.290328780162
 31
0.0
  0
LINE
  5
269B
330
1F
100
AcDbEntity
  8
Potence
100
AcDbLine
 10
989.1257787375037
 20
883.553069947353
 30
0.0
 11
1124.458216874441
 21
821.2655612668138
 31
0.0
  0
XLINE
  5
26C2
330
1F
100
AcDbEntity
  8
0
100
AcDbXline
 10
976.4081466896653
 20
889.4064309558503
 30
0.0
 11
0.0
 21
1.0
 31
0.0
  0
XLINE
  5
26C3
330
1F
100
AcDbEntity
  8
0
100
AcDbXline
 10
976.4081466896653
 20
889.4064309558503
 30
0.0
 11
0.9084022891313054
 21
-0.4180972148926662
 31
0.0
  0
DIMENSION
  5
26C6
330
1F
100
AcDbEntity
  8
cotes
100
AcDbDimension
  2
*D65
 10
1144.533392146728
 20
792.5952397166987
 30
0.0
 11
1065.661452872448
 21
860.9059769445924
 31
0.0
 70
    34
 71
     5
 42
0.5285814310139361
  3
ISO-25
100
AcDb2LineAngularDimension
 13
1140.381137135617
 23
798.5252744343028
 33
0.0
 14
970.5547856811683
 24
876.6887989080119
 34
0.0
 15
1104.383041602155
 25
849.9358828169285
 35
0.0
 16
1072.767684015573
 26
865.9145033998289
 36
0.0
  0
XLINE
  5
26D5
330
1F
100
AcDbEntity
  8
0
100
AcDbXline
 10
976.4081466896653
 20
889.4064309558503
 30
0.0
 11
-0.5735764363510462
 21
0.8191520442889917
 31
0.0
  0
XLINE
  5
26D6
330
1F
100
AcDbEntity
  8
0
100
AcDbXline
 10
976.4081466896653
 20
889.4064309558499
 30
0.0
 11
0.819152044288992
 21
0.5735764363510462
 31
0.0
  0
XLINE
  5
2704
330
1F
100
AcDbEntity
  8
0
100
AcDbXline
 10
976.4081466896653
 20
889.4064309558499
 30
0.0
 11
0.4180972148926422
 21
0.9084022891313166
 31
0.0
  0
DIMENSION
  5
2705
330
1F
100
AcDbEntity
  8
cotes
100
AcDbDimension
  2
*D68
 10
1116.782572426905
 20
861.924752988777
 30
0.0
 11
1054.516713833713
 21
892.8763652099824
 31
0.0
 70
    33
 71
     5
 42
139.0064626938119
  3
ISO-25
100
AcDbAlignedDimension
 13
982.2615076981625
 23
902.1240630036883
 33
0.0
 14
1108.535296613266
 24
844.0058480993245
 34
0.0
  0
DIMENSION
  5
2712
330
1F
100
AcDbEntity
  8
cotes
100
AcDbDimension
  2
*D69
 10
1137.316772566427
 20
791.8673114289786
 30
0.0
 11
1053.274632703563
 21
832.8415784348564
 31
0.0
 70
    33
 71
     5
 42
186.9505983046913
  3
ISO-25
100
AcDbAlignedDimension
 13
970.5547856811682
 23
876.6887989080116
 33
0.0
 14
1140.381137135617
 24
798.5252744343028
 34
0.0
  0
VIEWPORT
  5
DA
330
1B
100
AcDbEntity
 67
     1
  8
0
100
AcDbViewport
 10
143.4359283447265
 20
98.26624727249146
 30
0.0
 40
387.1480060661834
 41
222.1517806396484
 68
     1
 69
     1
 12
143.4359283447265
 22
98.26624727249146
 13
0.0
 23
0.0
 14
10.0
 24
10.0
 15
10.0
 25
10.0
 16
0.0
 26
0.0
 36
1.0
 17
0.0
 27
0.0
 37
0.0
 42
50.0
 43
0.0
 44
0.0
 45
222.1517806396484
 50
0.0
 51
0.0
 72
   100
 90
    32800
  1

281
     0
 71
     1
 74
     0
110
0.0
120
0.0
130
0.0
111
1.0
121
0.0
131
0.0
112
0.0
122
1.0
132
0.0
 79
     0
146
0.0
  0
VIEWPORT
  5
DC
330
1B
100
AcDbEntity
 67
     1
  8
cadre
100
AcDbViewport
 10
143.4359202384948
 20
98.18157792091369
 30
0.0
 40
229.4974723815918
 41
157.0905246734619
 68
     2
 69
     2
 12
1373.72971197933
 22
649.4913573092121
 13
0.0
 23
0.0
 14
10.0
 24
10.0
 15
10.0
 25
10.0
 16
0.0
 26
0.0
 36
1.0
 17
0.0
 27
0.0
 37
0.0
 42
50.0
 43
0.0
 44
0.0
 45
1824.770642201831
 50
0.0
 51
0.0
 72
   100
 90
    32864
  1

281
     0
 71
     1
 74
     0
110
0.0
120
0.0
130
0.0
111
1.0
121
0.0
131
0.0
112
0.0
122
1.0
132
0.0
 79
     0
146
0.0
  0
ENDSEC
  0
SECTION
  2
OBJECTS
  0
DICTIONARY
  5
C
330
0
100
AcDbDictionary
281
     1
  3
ACAD_GROUP
350
D
  3
ACAD_LAYOUT
350
1A
  3
ACAD_MLINESTYLE
350
17
  3
ACAD_PLOTSETTINGS
350
19
  3
ACAD_PLOTSTYLENAME
350
E
  3
DWGPROPS
350
1978
  0
DICTIONARY
  5
D
102
{ACAD_REACTORS
330
C
102
}
330
C
100
AcDbDictionary
281
     1
  0
DICTIONARY
  5
1A
102
{ACAD_REACTORS
330
C
102
}
330
C
100
AcDbDictionary
281
     1
  3
Layout1
350
1E
  3
Layout2
350
26
  3
Model
350
22
  0
DICTIONARY
  5
17
102
{ACAD_REACTORS
330
C
102
}
330
C
100
AcDbDictionary
281
     1
  3
Standard
350
18
  0
DICTIONARY
  5
19
102
{ACAD_REACTORS
330
C
102
}
330
C
100
AcDbDictionary
281
     1
  0
ACDBDICTIONARYWDFLT
  5
E
102
{ACAD_REACTORS
330
C
102
}
330
C
100
AcDbDictionary
281
     1
  3
Normal
350
F
100
AcDbDictionaryWithDefault
340
F
  0
XRECORD
  5
1978
102
{ACAD_REACTORS
330
C
102
}
330
C
100
AcDbXrecord
280
     1
  1
DWGPROPS COOKIE
  2

  3

  4

  6

  7

  8
jeanlou
  9

300
=
301
=
302
=
303
=
304
=
305
=
306
=
307
=
308
=
309
=
 40
8.614570810185185
 41
2453261.787012975
 42
2454137.961551458
  1

 90
        0
  0
LAYOUT
  5
1E
102
{ACAD_REACTORS
330
1A
102
}
330
1A
100
AcDbPlotSettings
  1

  2
Brother HL-5040 series
  4
A4
  6

 40
6.720416545867919
 41
5.027085304260253
 42
6.889755249023437
 43
5.027069091796875
 44
209.9733276367187
 45
296.9259948730469
 46
0.0
 47
0.0
 48
0.0
 49
0.0
140
0.0
141
0.0
142
1.0
143
1.0
 70
   688
 72
     1
 73
     1
 74
     5
  7
monochrome.ctb
 75
    16
147
1.0
148
0.0
149
0.0
100
AcDbLayout
  1
Layout1
 70
     1
 71
     1
 10
-5.027069091796875
 20
-6.720416545867919
 11
291.89892578125
 21
203.2529110908508
 12
0.0
 22
0.0
 32
0.0
 14
28.68718404769896
 24
19.63631558418273
 34
0.0
 15
258.1846564292908
 25
176.7268402576446
 35
0.0
146
0.0
 13
0.0
 23
0.0
 33
0.0
 16
1.0
 26
0.0
 36
0.0
 17
0.0
 27
1.0
 37
0.0
 76
     0
330
1B
331
DA
  0
LAYOUT
  5
26
102
{ACAD_REACTORS
330
1A
102
}
330
1A
100
AcDbPlotSettings
  1

  2
Brother HL-5040 series
  4

  6

 40
0.0
 41
0.0
 42
0.0
 43
0.0
 44
0.0
 45
0.0
 46
0.0
 47
0.0
 48
0.0
 49
0.0
140
0.0
141
0.0
142
1.0
143
1.0
 70
   688
 72
     0
 73
     0
 74
     5
  7
monochrome.ctb
 75
    16
147
1.0
148
0.0
149
0.0
100
AcDbLayout
  1
Layout2
 70
     1
 71
     2
 10
0.0
 20
0.0
 11
12.0
 21
9.0
 12
0.0
 22
0.0
 32
0.0
 14
0.0
 24
0.0
 34
0.0
 15
0.0
 25
0.0
 35
0.0
146
0.0
 13
0.0
 23
0.0
 33
0.0
 16
1.0
 26
0.0
 36
0.0
 17
0.0
 27
1.0
 37
0.0
 76
     0
330
23
  0
LAYOUT
  5
22
102
{ACAD_REACTORS
330
1A
102
}
330
1A
100
AcDbPlotSettings
  1

  2
Brother HL-5040 series.pc3
  4
A4
  6

 40
6.720416545867919
 41
5.027085304260253
 42
6.889755249023437
 43
5.027069091796875
 44
209.9733276367187
 45
296.9259948730469
 46
14.56
 47
0.72
 48
0.0
 49
0.0
140
0.0
141
0.0
142
1.0
143
8.0
 70
 11956
 72
     1
 73
     1
 74
     0
  7
Screening 100%.ctb
 75
    19
147
0.125
148
195.5188050163233
149
189.2758917718388
100
AcDbLayout
  1
Model
 70
     1
 71
     0
 10
0.0
 20
0.0
 11
12.0
 21
9.0
 12
0.0
 22
0.0
 32
0.0
 14
0.0
 24
0.0
 34
0.0
 15
0.0
 25
0.0
 35
0.0
146
0.0
 13
0.0
 23
0.0
 33
0.0
 16
1.0
 26
0.0
 36
0.0
 17
0.0
 27
1.0
 37
0.0
 76
     0
330
1F
  0
MLINESTYLE
  5
18
102
{ACAD_REACTORS
330
17
102
}
330
17
100
AcDbMlineStyle
  2
STANDARD
 70
     0
  3

 62
   256
 51
90.0
 52
90.0
 71
     2
 49
0.5
 62
   256
  6
BYLAYER
 49
-0.5
 62
   256
  6
BYLAYER
  0
ACDBPLACEHOLDER
  5
F
102
{ACAD_REACTORS
330
E
102
}
330
E
  0
ENDSEC
  0
EOF
